Скачать через торрент Лес призраков The Forest Фильм бесплатно в хорошем качестве torrent

Скачивайте на UnionPeer.org фильмы через торрент без регистрации. Новинки кино в хорошем качестве через торрент. На UnionPeer.org можно скачать через торрент фильмы 2014 и 2015 годов. Самые новые фильмы.

Скачать торрент Лес призраков The Forest бесплатно через .torrent фильм мультфильм сериал

Статистика раздачи
Размер:  7.9 GB   |    Зарегистрирован:  2 года 6 месяцев   |    .torrent скачан:  262 раза   |   
Раздают:  1  
   
загрузка...
 
Автор Сообщение

Galfimbul

avatar Galfimbul


Лес призраков /The Forest

Год выхода: 2016
Жанр: Ужасы
Режиссер: Джейсон Зада
В ролях: Натали Дормер, Оуэн Мэкен, Стефани Вогт, Осаму Танпопо, Ясуо Тобисима, Ибуки Канеда, Акико Ивасе, Кикуо Ичикава, Норико Сакура, Йозеф Аоки

О фильме:
Юная американка Сара отправляется на поиски сестры-близняшки, которая таинственным образом исчезла на японском острове Хонсю. Поиски приводят к подножью горы Фудзи, в таинственный лес, который пользуется дурной славой. Сара не подозревала, что она вступает в мрачный мир призраков, злых и измученных душ, которые охотятся на любого, кто блуждает по их мрачному лесу…

Страна: США
Студия: AI-Film, Lava Bear Films
Продолжительность: 01:33:17
Перевод: Дублированное iTunes

Файл
Кодек: MPEG4 Video (H264)
Качество: BDRip 1080p | iTunes
Видео: 1920x1040, 10,2 Мбит/сек, 23.976fps
Звук:
Аудио #1: Русский (АС3, 6 ch, 384 Кбит/с) Дублированное iTunes
Аудио #2: Английский (DTS, 6 ch, 1509 Кбит/с) Оригинал
Субтитры: английские
Общее
Уникальный идентификатор : 199690267798549879985199071100234673348 (0x963AF256B5D2A07EBB2F42ED12ACACC4)
Полное имя : C:TempThe Forest.2016.BDRip.1080p.mkv
Формат : Matroska
Версия формата : Version 2
Размер файла : 7,90 Гбайт
Продолжительность : 1 ч. 33 м.
Общий поток : 12,1 Мбит/сек
Название фильма : The.Forest.2016.BDRip.1080p
Дата кодирования : UTC 2016-03-30 23:10:51
Программа кодирования : mkvmerge v4.0.0 ('The Stars were mine') сборка от Jun 6 2010 16:18:42
Библиотека кодирования : libebml v1.0.0 + libmatroska v1.0.0
Обложка : Yes
Attachments : cover_land.jpg / small_cover.jpg / small_cover_land.jpg / cover.jpg

Видео
Идентификатор : 1
Формат : AVC
Формат/Информация : Advanced Video Codec
Профиль формата : High@L4.1
Параметр CABAC формата : Да
Параметр ReFrames формата : 4 кадра
Идентификатор кодека : V_MPEG4/ISO/AVC
Продолжительность : 1 ч. 33 м.
Битрейт : 10,2 Мбит/сек
Ширина : 1920 пикселей
Высота : 1040 пикселей
Соотношение сторон : 1,85:1
Режим частоты кадров : Постоянный
Частота кадров : 23,976 (24000/1001) кадра/сек
Цветовое пространство : YUV
Субдискретизация насыщенности : 4:2:0
Битовая глубина : 8 бит
Тип развёртки : Прогрессивная
Бит/(Пиксели*Кадры) : 0.214
Размер потока : 6,51 Гбайт (82%)
Библиотека кодирования : x264 core 148 r2665 a01e339
Настройки программы : cabac=1 / ref=4 / deblock=1:0:0 / analyse=0x3:0x113 / me=umh / subme=8 / psy=1 / psy_rd=1.00:0.00 / mixed_ref=1 / me_range=16 / chroma_me=1 / trellis=1 / 8x8dct=1 / cqm=0 / deadzone=21,11 / fast_pskip=0 / chroma_qp_offset=-2 / threads=24 / lookahead_threads=4 / sliced_threads=0 / nr=0 / decimate=1 / interlaced=0 / bluray_compat=0 / constrained_intra=0 / bframes=3 / b_pyramid=2 / b_adapt=2 / b_bias=0 / direct=3 / weightb=1 / open_gop=0 / weightp=2 / keyint=250 / keyint_min=23 / scenecut=40 / intra_refresh=0 / rc_lookahead=50 / rc=2pass / mbtree=1 / bitrate=10238 / ratetol=1.0 / qcomp=0.60 / qpmin=0 / qpmax=69 / qpstep=4 / cplxblur=20.0 / qblur=0.5 / ip_ratio=1.40 / aq=1:1.00
Язык : English
Default : Нет
Forced : Нет

Аудио #1
Идентификатор : 2
Формат : AC-3
Формат/Информация : Audio Coding 3
Расширение режима : CM (complete main)
Параметр Endianness формата : Big
Идентификатор кодека : A_AC3
Продолжительность : 1 ч. 33 м.
Вид битрейта : Постоянный
Битрейт : 384 Кбит/сек
Каналы : 6 каналов
Расположение каналов : Front: L C R, Side: L R, LFE
Частота : 48,0 КГц
Частота кадров : 31,250 кадров/сек (1536 spf)
Метод сжатия : С потерями
Размер потока : 256 Мбайт (3%)
Заголовок : DUB iTunes
Язык : Russian
Default : Да
Forced : Да

Аудио #2
Идентификатор : 3
Формат : DTS
Формат/Информация : Digital Theater Systems
Режим : 16
Параметр Endianness формата : Big
Идентификатор кодека : A_DTS
Продолжительность : 1 ч. 33 м.
Вид битрейта : Постоянный
Битрейт : 1509 Кбит/сек
Каналы : 6 каналов
Расположение каналов : Front: L C R, Side: L R, LFE
Частота : 48,0 КГц
Частота кадров : 93,750 кадра/сек (512 spf)
Битовая глубина : 24 бит
Метод сжатия : С потерями
Задержка видео : 11 мс.
Размер потока : 1007 Мбайт (12%)
Язык : English
Default : Нет
Forced : Нет

Текст
Идентификатор : 4
Формат : UTF-8
Идентификатор кодека : S_TEXT/UTF8
Идентификатор кодека/Информация : UTF-8 Plain Text
Язык : English
Default : Нет
Forced : Нет

Меню
00:00:00.000 : en:00:00:00.000
00:05:31.998 : en:00:05:31.998
00:09:30.236 : en:00:09:30.236
00:15:37.353 : en:00:15:37.353
00:19:23.954 : en:00:19:23.954
00:23:38.375 : en:00:23:38.375
00:28:57.194 : en:00:28:57.194
00:34:14.970 : en:00:34:14.970
00:36:58.258 : en:00:36:58.258
00:40:25.673 : en:00:40:25.673
00:43:56.133 : en:00:43:56.133
00:48:47.633 : en:00:48:47.633
00:53:20.489 : en:00:53:20.489
00:59:39.117 : en:00:59:39.117
01:02:35.085 : en:01:02:35.085
01:07:20.161 : en:01:07:20.161
01:11:33.331 : en:01:11:33.331
01:16:26.999 : en:01:16:26.999
01:21:35.057 : en:01:21:35.057
01:26:54.334 : en:01:26:54.334


Трекер:  [ 31-Мар-2016 05:30 ]

  

Скачать .torrent

Размер .torrent файла 40 KB


Размер: 7.9 GB
Хэш (hash) релиза: 4760a8611167b2a706dde87526c214de3458e557
Подписка на обновления:

Торренты, похожие на Лес призраков The Forest скачать торрент

Форум Название Автор Размер S L Добавлен
Зарубежные фильмы 2016-2018 (Новинки зарубежного кино) ·· Лес призраков / The Forest (Джейсон Зада / Jason Zada) [2016, США, Ужасы, детектив, HDRip] Dub (iTunes) Galfimbul 772538368737 MB 0 0 1461670117

14:28

26-Апр-16

Зарубежные фильмы 2016-2018 (Новинки зарубежного кино) ·· Лес призраков / The Forest (Джейсон Зада / Jason Zada) [2016, США, Ужасы, детектив, HDRip] Dub (iTunes) Galfimbul 15112335361.41 GB 0 0 1461670098

14:28

26-Апр-16

Зарубежные фильмы 2016-2018 (Новинки зарубежного кино) ·· Лес призраков / The Forest (Джейсон Зада / Jason Zada) [2016, США, ужасы, детектив, HDRip-AVC] Dub (iTunes) + sub (eng) Galfimbul 780857724745 MB 0 0 1461669952

14:25

26-Апр-16

Зарубежные фильмы до 2016 ·· Лес призраков / The Forest (Джейсон Зада / Jason Zada) [2016, США, ужасы, детектив, BDRip 720p] Dub (iTunes) + Sub Eng + Original Eng Galfimbul 56230302715.24 GB 0 0 1459679008

13:23

3-Апр-16

Зарубежные фильмы 2016-2018 (Новинки зарубежного кино) ·· Лес призраков / The Forest (Джейсон Зада / Jason Zada) [2016, США, ужасы, детектив, BDRip-AVC] Dub Galfimbul 15678858231.46 GB 0 0 1459488833

08:33

1-Апр-16

Зарубежные фильмы 2016-2018 (Новинки зарубежного кино) ·· Лес призраков / The Forest (Джейсон Зада / Jason Zada) [2016, США, ужасы, BDRip 720p] iTunes Galfimbul 49612276774.62 GB 0 0 1459436038

17:53

31-Мар-16

Зарубежные фильмы 2016-2018 (Новинки зарубежного кино) ·· Лес призраков / The Forest (Джейсон Зада / Jason Zada) [2016, США, Ужасы, детектив, HDRip] Dub (iTunes) Galfimbul 14645002241.36 GB 0 0 1459404031

09:00

31-Мар-16

Зарубежные фильмы 2016-2018 (Новинки зарубежного кино) ·· Лес призраков / The Forest (Джейсон Зада / Jason Zada) [2016, США, ужасы, WEB-DL 1080p] Line Galfimbul 36599896593.41 GB 0 0 1458835482

19:04

24-Мар-16

Зарубежные фильмы 2016-2018 (Новинки зарубежного кино) ·· Лес призраков / The Forest (Джейсон Зада / Jason Zada) [2016, США, ужасы, WEB-DLRip] Dub (Line) + Original Eng Galfimbul 15733596161.47 GB 0 0 1458711030

08:30

23-Мар-16

Зарубежные фильмы до 2016 ·· Лес призраков / The Forest (Джейсон Зада) [2015, ужасы, WEBRip] Line Galfimbul 734311634700 MB 0 0 1455183983

12:46

11-Фев-16

Зарубежные фильмы до 2016 ·· Лес призраков / The Forest (Джейсон Зада) [2015, ужасы, WEBRip] Чистый звук Galfimbul 14632611841.36 GB 0 0 1454929976

14:12

8-Фев-16

Еще никто не оставлял запись к записи скачать торрент Лес призраков The Forest . Будь первым!

!Обратная связь