Скачать через торрент Лес призраков The Forest Фильм бесплатно в хорошем качестве torrent

Скачивайте на UnionPeer.org фильмы через торрент без регистрации. Новинки кино в хорошем качестве через торрент. На UnionPeer.org можно скачать через торрент фильмы 2014 и 2015 годов. Самые новые фильмы.

Скачать торрент Лес призраков The Forest бесплатно через .torrent фильм мультфильм сериал

Статистика раздачи
Размер:  737 MB   |    Зарегистрирован:  2 года 5 месяцев   |    .torrent скачан:  55 раз   |   
Раздают:  1  
   
загрузка...
 
Автор Сообщение

Galfimbul

avatar Galfimbul


Лес призраков / The Forest
Страна: США
Жанр: Ужасы, детектив
Год выпуска: 2016
Продолжительность: 01:33:17

Перевод: Профессиональный (дублированный) iTunes
Cубтитры: нет
Оригинальная аудиодорожка: нет

Режиссер: Джейсон Зада / Jason Zada

В ролях: Натали Дормер, Оуэн Мэкен, Стефани Вогт, Осаму Танпопо, Ясуо Тобисима, Ибуки Канеда, Акико Ивасе, Кикуо Ичикава, Норико Сакура, Йозеф Аоки

Описание: Юная американка Сара отправляется на поиски сестры-близняшки, которая таинственным образом исчезла на японском острове Хонсю. Поиски приводят к подножью горы Фудзи, в таинственный лес, который пользуется дурной славой. Сара не подозревала, что она вступает в мрачный мир призраков, злых и измученных душ, которые охотятся на любого, кто блуждает по их мрачному лесу…
Группа желает всем приятного просмотра!Качество видео: HDRip [BDRip 1080p]
Формат видео: AVI
Видео: 640x352 (1.82:1), 23.976 fps, XviD build 73 ~967 kbps avg, 0.18 bit/pixel
Аудио: 48 kHz, MPEG Layer 3, 2 ch, ~128.00 kbps avg

Сэмпл: http://multi-up.com/1095666
General
Complete name : D:\Торренты\The Forest_Drek_Rutracker.org.avi
Format : AVI
Format/Info : Audio Video Interleave
File size : 737 MiB
Duration : 1h 33mn
Overall bit rate : 1 104 Kbps
Writing application : VirtualDubMod 1.5.10.2 (build 2540/release)
Writing library : VirtualDubMod build 2540/release

Video
ID : 0
Format : MPEG-4 Visual
Format profile : Advanced Simple@L5
Format settings, BVOP : 2
Format settings, QPel : No
Format settings, GMC : No warppoints
Format settings, Matrix : Custom
Codec ID : XVID
Codec ID/Hint : XviD
Duration : 1h 33mn
Bit rate : 967 Kbps
Width : 640 pixels
Height : 352 pixels
Display aspect ratio : 16:9
Frame rate : 23.976 (24000/1001) fps
Color space : YUV
Chroma subsampling : 4:2:0
Bit depth : 8 bits
Scan type : Progressive
Compression mode : Lossy
Bits/(Pixel*Frame) : 0.179
Stream size : 645 MiB (88%)
Writing library : XviD 73

Audio
ID : 1
Format : MPEG Audio
Format version : Version 1
Format profile : Layer 3
Codec ID : 55
Codec ID/Hint : MP3
Duration : 1h 33mn
Bit rate mode : Constant
Bit rate : 128 Kbps
Channel(s) : 2 channels
Sampling rate : 48.0 KHz
Compression mode : Lossy
Stream size : 85.4 MiB (12%)
Alignment : Aligned on interleaves
Interleave, duration : 42 ms (1.00 video frame)
Interleave, preload duratio : 504 ms
Writing library : LAME3.99r
Encoding settings : -m s -V 4 -q 2 -lowpass 17 -b 128


Трекер:  [ 26-Апр-2016 13:00 ]

  

Скачать .torrent

Размер .torrent файла 15 KB


Размер: 737 MB
Хэш (hash) релиза: 9773743cd9dc86f134850cfeb78c8c13ca767b4e
Подписка на обновления:

Торренты, похожие на Лес призраков The Forest скачать торрент

Форум Название Автор Размер S L Добавлен
Зарубежные фильмы 2016-2018 (Новинки зарубежного кино) ·· Лес призраков / The Forest (Джейсон Зада / Jason Zada) [2016, США, Ужасы, детектив, HDRip] Dub (iTunes) Galfimbul 15112335361.41 GB 0 0 1461670098

14:28

26-Апр-16

Зарубежные фильмы 2016-2018 (Новинки зарубежного кино) ·· Лес призраков / The Forest (Джейсон Зада / Jason Zada) [2016, США, ужасы, детектив, HDRip-AVC] Dub (iTunes) + sub (eng) Galfimbul 780857724745 MB 0 0 1461669952

14:25

26-Апр-16

Зарубежные фильмы до 2016 ·· Лес призраков / The Forest (Джейсон Зада / Jason Zada) [2016, США, ужасы, детектив, BDRip 720p] Dub (iTunes) + Sub Eng + Original Eng Galfimbul 56230302715.24 GB 0 0 1459679008

13:23

3-Апр-16

Зарубежные фильмы 2016-2018 (Новинки зарубежного кино) ·· Лес призраков / The Forest (Джейсон Зада / Jason Zada) [2016, США, ужасы, детектив, BDRip-AVC] Dub Galfimbul 15678858231.46 GB 0 0 1459488833

08:33

1-Апр-16

Зарубежные фильмы 2016-2018 (Новинки зарубежного кино) ·· Лес призраков / The Forest (Джейсон Зада / Jason Zada) [2016, США, ужасы, BDRip 720p] iTunes Galfimbul 49612276774.62 GB 0 0 1459436038

17:53

31-Мар-16

Зарубежные фильмы 2016-2018 (Новинки зарубежного кино) ·· Лес призраков / The Forest (Джейсон Зада / Jason Zada) [2016, США, Ужасы, детектив, HDRip] Dub (iTunes) Galfimbul 14645002241.36 GB 0 0 1459404031

09:00

31-Мар-16

Зарубежные фильмы 2016-2018 (Новинки зарубежного кино) ·· Лес призраков / The Forest (Джейсон Зада / Jason Zada) [2016, США, ужасы, BDRip 1080p] iTunes Galfimbul 84781043617.9 GB 0 0 1459392342

05:45

31-Мар-16

Зарубежные фильмы 2016-2018 (Новинки зарубежного кино) ·· Лес призраков / The Forest (Джейсон Зада / Jason Zada) [2016, США, ужасы, WEB-DL 1080p] Line Galfimbul 36599896593.41 GB 0 0 1458835482

19:04

24-Мар-16

Зарубежные фильмы 2016-2018 (Новинки зарубежного кино) ·· Лес призраков / The Forest (Джейсон Зада / Jason Zada) [2016, США, ужасы, WEB-DLRip] Dub (Line) + Original Eng Galfimbul 15733596161.47 GB 0 0 1458711030

08:30

23-Мар-16

Зарубежные фильмы до 2016 ·· Лес призраков / The Forest (Джейсон Зада) [2015, ужасы, WEBRip] Line Galfimbul 734311634700 MB 0 0 1455183983

12:46

11-Фев-16

Зарубежные фильмы до 2016 ·· Лес призраков / The Forest (Джейсон Зада) [2015, ужасы, WEBRip] Чистый звук Galfimbul 14632611841.36 GB 0 0 1454929976

14:12

8-Фев-16

Еще никто не оставлял запись к записи скачать торрент Лес призраков The Forest . Будь первым!

!Обратная связь