Скачать через торрент Тупик Standoff Фильм бесплатно в хорошем качестве torrent

Скачивайте на UnionPeer.org фильмы через торрент без регистрации. Новинки кино в хорошем качестве через торрент. На UnionPeer.org можно скачать через торрент фильмы 2014 и 2015 годов. Самые новые фильмы.

Скачать торрент Тупик Standoff бесплатно через .torrent фильм мультфильм сериал

Статистика раздачи
Размер:  720 MB   |    Зарегистрирован:  2 года 6 месяцев   |    .torrent скачан:  241 раз   |   
Раздают:  1  
   
загрузка...
 
Автор Сообщение

Galfimbul

avatar Galfimbul


Тупик / Standoff
Страна: США
Жанр: Триллер
Год выпуска: 2016
Продолжительность: 01:26:02
Перевод: Любительский (многоголосый закадровый) Sunshine Studio & Parovoz Production
Cубтитры: нет
Оригинальная аудиодорожка: нет

Режиссер: Адам Аллека / Adam Alleca
В ролях: Томас Джейн, Лоренс Фишбёрн, Элла Бэллентайн, Джим Уотсон, Джон Тенч, Лаура ДеКартере, Тед Атертон, Джоанна Дуглас
Описание: Ветеран войны Картер с дробовиком наперевес вынужден защищать двенадцатилетнюю девочку, ставшую свидетелем убийства.
Группа желает всем приятного просмотра!Качество видео: HDRip [BDRip 1080p]
Формат видео: AVI
Видео: 688x288 (2.39:1), 23.976 fps, XviD build 73 ~1030 kbps avg, 0.22 bit/pixel
Аудио: 48 kHz, MPEG Layer 3, 2 ch, ~128.00 kbps avg
Сэмпл: http://multi-up.com/1095799
<a href="viewtopic.php?t=5144407" class="postLink">...5144407</a>
http://screenshotcomparison.com/comparison/167872/picture:0
General
Complete name : D:\Торренты\Standoff_Drek_Rutracker.org.avi
Format : AVI
Format/Info : Audio Video Interleave
File size : 720 MiB
Duration : 1h 26mn
Overall bit rate : 1 168 Kbps
Writing application : VirtualDubMod 1.5.10.2 (build 2540/release)
Writing library : VirtualDubMod build 2540/release

Video
ID : 0
Format : MPEG-4 Visual
Format profile : Advanced Simple@L5
Format settings, BVOP : 2
Format settings, QPel : No
Format settings, GMC : No warppoints
Format settings, Matrix : Custom
Codec ID : XVID
Codec ID/Hint : XviD
Duration : 1h 26mn
Bit rate : 1 030 Kbps
Width : 688 pixels
Height : 288 pixels
Display aspect ratio : 2.40:1
Frame rate : 23.976 (24000/1001) fps
Color space : YUV
Chroma subsampling : 4:2:0
Bit depth : 8 bits
Scan type : Progressive
Compression mode : Lossy
Bits/(Pixel*Frame) : 0.217
Stream size : 635 MiB (88%)
Writing library : XviD 73

Audio
ID : 1
Format : MPEG Audio
Format version : Version 1
Format profile : Layer 3
Codec ID : 55
Codec ID/Hint : MP3
Duration : 1h 26mn
Bit rate mode : Constant
Bit rate : 128 Kbps
Channel(s) : 2 channels
Sampling rate : 48.0 KHz
Compression mode : Lossy
Stream size : 78.8 MiB (11%)
Alignment : Aligned on interleaves
Interleave, duration : 42 ms (1.00 video frame)
Interleave, preload duratio : 504 ms
Writing library : LAME3.99r
Encoding settings : -m s -V 4 -q 2 -lowpass 17 -b 128


Трекер:  [ 03-Апр-2016 07:30 ]

  

Скачать .torrent

Размер .torrent файла 14 KB


Размер: 720 MB
Хэш (hash) релиза: 0bbf3665a1ee57709ddf4b3365d7c318693ad880
Подписка на обновления:

Еще никто не оставлял запись к записи скачать торрент Тупик Standoff . Будь первым!

!Обратная связь