Скачать через торрент Морпехи 3: В осаде Jarhead 3: The Siege Фильм бесплатно в хорошем качестве torrent

Скачивайте на UnionPeer.org фильмы через торрент без регистрации. Новинки кино в хорошем качестве через торрент. На UnionPeer.org можно скачать через торрент фильмы 2014 и 2015 годов. Самые новые фильмы.

Скачать торрент Морпехи 3: В осаде Jarhead 3: The Siege бесплатно через .torrent фильм мультфильм сериал

Статистика раздачи
Размер:  1.45 GB   |    Зарегистрирован:  2 года 5 месяцев   |    .torrent скачан:  55 раз   |   
Раздают:  1  
   
загрузка...
 
Автор Сообщение

Galfimbul

avatar Galfimbul


Морпехи 3: В осаде / Jarhead 3: The Siege

Страна: США
Жанр: боевик, военный
Год выпуска: 2016
Продолжительность: 01:28:59

Перевод: Профессиональный (дублированный) [лицензия]
Cубтитры: нет
Оригинальная аудиодорожка: нет

Режиссер: Уильям Кауфман / William Kaufman

В ролях: Скотт Эдкинс, Чарли Вебер, Том Эйнсли, Эрик Валдез, Данте Баско, Саша Джексон, Деннис Хейсбёрт, Стефен Хоган, Джо Корригалл, Адриан Ховард

Описание: Отряду морских пехотинцев, чья миссия — защита посольства США в одной из ближневосточных стран, приходится отражать внезапную атаку противника.
Группа желает всем приятного просмотра!Качество видео: HDRip [BDRip 1080p]
Формат видео: AVI
Видео: 720x304 (2.37:1), 23.976 fps, XviD build 65 ~1940 kbps avg, 0.37 bit/pixel
Аудио: 48 kHz, AC3 Dolby Digital, 3/2 (L,C,R,l,r) + LFE ch, ~384 kbps

Сэмпл: http://multi-up.com/1096269
<a href="viewtopic.php?t=5164795" class="postLink">...5164795</a>
http://screenshotcomparison.com/comparison/168275/picture:0
General
Complete name : D:\Торренты\Jarhead 3 _ Drek_Rutracker.org.avi
Format : AVI
Format/Info : Audio Video Interleave
File size : 1.45 GiB
Duration : 1h 28mn
Overall bit rate : 2 334 Kbps
Writing application : VirtualDubMod 1.5.10.2 (build 2540/release)
Writing library : VirtualDubMod build 2540/release

Video
ID : 0
Format : MPEG-4 Visual
Format profile : Advanced Simple@L5
Format settings, BVOP : 2
Format settings, QPel : No
Format settings, GMC : No warppoints
Format settings, Matrix : Custom
Codec ID : XVID
Codec ID/Hint : XviD
Duration : 1h 28mn
Bit rate : 1 941 Kbps
Width : 720 pixels
Height : 304 pixels
Display aspect ratio : 2.35:1
Frame rate : 23.976 (24000/1001) fps
Color space : YUV
Chroma subsampling : 4:2:0
Bit depth : 8 bits
Scan type : Progressive
Compression mode : Lossy
Bits/(Pixel*Frame) : 0.370
Stream size : 1.21 GiB (83%)
Writing library : XviD 65

Audio
ID : 1
Format : AC-3
Format/Info : Audio Coding 3
Mode extension : CM (complete main)
Format settings, Endianness : Big
Codec ID : 2000
Duration : 1h 28mn
Bit rate mode : Constant
Bit rate : 384 Kbps
Channel(s) : 6 channels
Channel positions : Front: L C R, Side: L R, LFE
Sampling rate : 48.0 KHz
Frame rate : 31.250 fps (1536 spf)
Compression mode : Lossy
Stream size : 244 MiB (16%)
Alignment : Split accross interleaves
Interleave, duration : 42 ms (1.00 video frame)
Interleave, preload duratio : 500 ms


Трекер:  [ 26-Апр-2016 13:00 ]

  

Скачать .torrent

Размер .torrent файла 15 KB


Размер: 1.45 GB
Хэш (hash) релиза: ab82423782876a940a3015011e068ed223d5f66a
Подписка на обновления:

Торренты, похожие на Морпехи 3: В осаде Jarhead 3: The Siege скачать торрент

Форум Название Автор Размер S L Добавлен
Зарубежные фильмы 2016-2018 (Новинки зарубежного кино) ·· Морпехи 3: В осаде / Jarhead 3: The Siege (Уильям Кауфман / William Kaufman) [2016, США, боевик, военный, HDRip] Dub + Original Eng Galfimbul 14677422081.37 GB 0 0 1455997381

22:43

20-Фев-16

Зарубежные фильмы 2016-2018 (Новинки зарубежного кино) ·· Морпехи 3: В осаде / Jarhead 3: The Siege (Уильям Кауфман / William Kaufman) [2016, США, Боевик, Военный, HDRip] Dub Galfimbul 781790878746 MB 0 0 1455997332

22:42

20-Фев-16

Зарубежные фильмы 2016-2018 (Новинки зарубежного кино) ·· Морпехи 3: В осаде / Jarhead 3: The Siege (Уильям Кауфман / William Kaufman) [2016, США, Боевик, военный, BDRip-AVC] Dub + Sub Rus, Eng + Original Eng Galfimbul 28129166252.62 GB 0 0 1455997283

22:41

20-Фев-16

Зарубежные фильмы до 2016 ·· Морпехи 3: В осаде / Jarhead 3: The Siege (Уильям Кауфман / William Kaufman) [2016, США, боевик, военный, Blu-ray disc 1080p] [CEE] Dub + Sub Rus, Eng + Original Eng Galfimbul 3297880073430.71 GB 0 0 1455091092

10:58

10-Фев-16

Зарубежные фильмы до 2016 ·· Морпехи 3: В осаде / Jarhead 3: The Siege (Уильям Кауфман / William Kaufman) [2016, США, боевик, военный, BDRip 720p] Dub + Sub Rus, Eng + Original Eng Galfimbul 55851569455.2 GB 0 0 1454860325

18:52

7-Фев-16

Зарубежные фильмы до 2016 ·· Морпехи 3: В осаде / Jarhead 3: The Siege (Уильям Кауфман / William Kaufman) [2016, США, боевик, военный, BDRip 1080p] Dub + Sub Rus, Eng + Original Eng Galfimbul 1142483034510.64 GB 0 0 1454860303

18:51

7-Фев-16

Еще никто не оставлял запись к записи скачать торрент Морпехи 3: В осаде Jarhead 3: The Siege . Будь первым!

!Обратная связь