Скачать через торрент Любой ценой Hell or High Water Фильм бесплатно в хорошем качестве torrent

Скачивайте на UnionPeer.org фильмы через торрент без регистрации. Новинки кино в хорошем качестве через торрент. На UnionPeer.org можно скачать через торрент фильмы 2014 и 2015 годов. Самые новые фильмы.

Скачать торрент Любой ценой Hell or High Water бесплатно через .torrent фильм мультфильм сериал

Статистика раздачи
Размер:  14.42 GB   |    Зарегистрирован:  7 лет 2 месяца   |    .torrent скачан:  443 раза   |   
Раздают:  1  
 

Скачать Любой ценой / Hell or High Water (Дэвид Маккензи / David Mackenzie) [2016, США, драма, криминал, BDRip 1080p] Dub + Sub (Eng) + Original (Eng) через torrent

 
 
Автор Сообщение

Galfimbul

avatar Galfimbul


Любой ценой / Hell or High Water

Страна: США
Студия: Film 44, Odd Lot Entertainment, Sidney Kimmel Entertainment
Жанр: Драма, криминал
Год выпуска: 2016
Продолжительность: 01:42:15

Перевод: Профессиональный (дублированный) Лицензия
Cубтитры: английские
Оригинальная аудиодорожка: английский

Режиссер: Дэвид Маккензи / David Mackenzie

В ролях: Джефф Бриджес, Крис Пайн, Бен Фостер, Джил Бирмингем, Дейл Дикки, Уильям Стерчи, Бак Тейлор, Кристин Берг, Кит Мэривезер, Жакмо Буззел

Описание: Два брата-лузера решают наведаться в хранилища пары-тройки банков, которые много лет безбожно обкрадывают своих должников. Расследование дерзких ограблений с грубым почерком увенчает карьеру шерифа Маркуса. Но куда выведет это нехитрое дело?



Тип релиза: BDRip 1080p
Контейнер: MKV

Видео: MPEG-4 AVC, 17,2 Мбит/сек, 1920x800, 23,976 fps
Аудио: Rus, DTS, 1509 kb/s (6 ch), 48 kHz
Аудио 2: Eng, DTS, 1509 kb/s (6 ch), 48 kHz
ОбщееУникальный идентификатор : 253793599528838573696263339446764277286 (0xBEEEDE8A9E2E7CBEA44571888DBB8E26)Полное имя : E:\LubOy.CenOy.2O16.D.BDRip.1O8Op.mkvФормат : MatroskaВерсия формата : Version 4 / Version 2Размер файла : 14,4 ГбайтПродолжительность : 1 ч. 42 м.Общий поток : 20,2 Мбит/секДата кодирования : UTC 2016-11-26 20:21:41Программа кодирования : mkvmerge v9.4.0 ('Knurl') 64bitБиблиотека кодирования : libebml v1.3.4 + libmatroska v1.4.5

ВидеоИдентификатор : 1Формат : AVCФормат/Информация : Advanced Video CodecПрофиль формата : [email protected]Параметр CABAC формата : ДаПараметр ReFrames формата : 5 кадровИдентификатор кодека : V_MPEG4/ISO/AVCПродолжительность : 1 ч. 42 м.Битрейт : 17,2 Мбит/секШирина : 1920 пикселейВысота : 800 пикселейСоотношение сторон : 2,40:1Режим частоты кадров : ПостоянныйЧастота кадров : 23,976 (24000/1001) кадра/секЦветовое пространство : YUVСубдискретизация насыщенности : 4:2:0Битовая глубина : 8 битТип развёртки : ПрогрессивнаяБит/(Пиксели*Кадры) : 0.466Размер потока : 12,3 Гбайт (85%)Библиотека кодирования : x264 core 148 r2597 e86f3a1Настройки программы : cabac=1 / ref=5 / deblock=1:-3:-3 / analyse=0x3:0x113 / me=umh / subme=11 / psy=1 / psy_rd=1.00:0.00 / mixed_ref=1 / me_range=48 / chroma_me=1 / trellis=2 / 8x8dct=1 / cqm=0 / deadzone=21,11 / fast_pskip=0 / chroma_qp_offset=-2 / threads=25 / lookahead_threads=6 / sliced_threads=0 / nr=0 / decimate=0 / interlaced=0 / bluray_compat=0 / constrained_intra=0 / bframes=10 / b_pyramid=2 / b_adapt=2 / b_bias=0 / direct=3 / weightb=1 / open_gop=0 / weightp=2 / keyint=240 / keyint_min=24 / scenecut=40 / intra_refresh=0 / rc_lookahead=40 / rc=crf / mbtree=0 / crf=17.8 / qcomp=0.70 / qpmin=0 / qpmax=69 / qpstep=4 / vbv_maxrate=50000 / vbv_bufsize=40000 / crf_max=0.0 / nal_hrd=none / filler=0 / ip_ratio=1.25 / pb_ratio=1.15 / aq=3:0.85Язык : EnglishDefault : ДаForced : Нет

Аудио #1Идентификатор : 2Формат : DTSФормат/Информация : Digital Theater SystemsРежим : 16Параметр Endianness формата : BigИдентификатор кодека : A_DTSПродолжительность : 1 ч. 42 м.Вид битрейта : ПостоянныйБитрейт : 1509 Кбит/секКаналы : 6 каналовРасположение каналов : Front: L C R, Side: L R, LFEЧастота : 48,0 КГцЧастота кадров : 93,750 кадра/сек (512 spf)Битовая глубина : 24 битМетод сжатия : С потерямиРазмер потока : 1,08 Гбайт (7%)Заголовок : Dub | ЛицензияЯзык : RussianDefault : ДаForced : Нет

Аудио #2Идентификатор : 3Формат : DTSФормат/Информация : Digital Theater SystemsРежим : 16Параметр Endianness формата : BigИдентификатор кодека : A_DTSПродолжительность : 1 ч. 42 м.Вид битрейта : ПостоянныйБитрейт : 1509 Кбит/секКаналы : 6 каналовРасположение каналов : Front: L C R, Side: L R, LFEЧастота : 48,0 КГцЧастота кадров : 93,750 кадра/сек (512 spf)Битовая глубина : 24 битМетод сжатия : С потерямиРазмер потока : 1,08 Гбайт (7%)Заголовок : OriginalЯзык : EnglishDefault : НетForced : Нет

ТекстИдентификатор : 4Формат : PGSРежим смешивания : zlibИдентификатор кодека : S_HDMV/PGSИдентификатор кодека/Информация : Picture based subtitle format used on BDs/HD-DVDsПродолжительность : 1 ч. 34 м.Битрейт : 10,9 Кбит/секCount of elements : 2392Размер потока : 7,35 Мбайт (0%)Язык : EnglishDefault : НетForced : Нет


Внимание! AdBlock блокирует показ скриншотов, все вопросы к разработчикам )))
Трекер:  [ 14-Дек-2016 22:00 ]

  

Скачать .torrent

Размер .torrent файла 72 KB


Размер: 14.42 GB
Хэш (hash) релиза: 4f6524cab2119cea07d9572d99e969917782ef89
Подписка на обновления:

Торренты, похожие на Любой ценой Hell or High Water скачать торрент

Форум Название Автор Размер S L Добавлен
Зарубежные фильмы 2016-2019 (Новинки зарубежного кино) ·%· Любой ценой / Hell or High Water (2016) BDRip-HEVC 1080p | Лицензия Galfimbul 60773996925.66 GB 0 0 1587410409

22:20

20-Апр-20

Зарубежные фильмы 2016-2019 (Новинки зарубежного кино) ·%· Любой ценой / Hell or High Water (2016) BDRip от ExKinoRay | Пучков Galfimbul 15698757921.46 GB 0 0 1546725013

00:50

6-Янв-19

Зарубежные фильмы 2016-2019 (Новинки зарубежного кино) ·%· Любой ценой / Hell or High Water (2016) BDRip 720p | A Galfimbul 32225182803 GB 0 0 1546455038

21:50

2-Янв-19

Зарубежные фильмы 2016-2019 (Новинки зарубежного кино) ·%· Любой ценой / Hell or High Water (2016) BDRip 1080p | A Galfimbul 75986413027.08 GB 0 0 1546455027

21:50

2-Янв-19

Зарубежные фильмы до 2016 ·· Любой ценой / Hell or High Water (Дэвид Маккензи / David Mackenzie) [2016, США, Триллер, драма, криминал, вестерн, DVD9] R5 Dub Galfimbul 65372651526.09 GB 0 0 1525552235

23:30

5-Май-18

Зарубежные фильмы 2016-2019 (Новинки зарубежного кино) ·· Любой ценой / Hell or High Water (Дэвид Маккензи / David Mackenzie) [2016, драма, криминал, боевик, BDRip] AVO (Гаврилов) Galfimbul 15605166081.45 GB 0 0 1525244468

10:01

2-Май-18

Зарубежные фильмы 2016-2019 (Новинки зарубежного кино) ·· Любой ценой / Hell or High Water (Дэвид Маккензи / David Mackenzie) [2016, США, драма, криминал, боевик, BDRip] AVO (Юрий Немахов) Galfimbul 15605166081.45 GB 0 0 1505707286

07:01

18-Сен-17

Зарубежные фильмы 2016-2019 (Новинки зарубежного кино) ·· Любой ценой / Hell or High Water (Дэвид Маккензи / David Mackenzie) [2016, США, драма, криминал, BDRip] Dub (BD CEE) + Original + Sub (rus,eng) Galfimbul 23435945042.18 GB 0 0 1482933588

16:59

28-Дек-16

Зарубежные фильмы 2016-2019 (Новинки зарубежного кино) ·· Любой ценой / Hell or High Water (Дэвид Маккензи / David Mackenzie) [2016, США, драма, криминал, BDRip-AVC] Dub Galfimbul 15335312661.43 GB 0 0 1478989668

01:27

13-Ноя-16

Зарубежные фильмы 2016-2019 (Новинки зарубежного кино) ·· Любой ценой / Hell or High Water (Дэвид Маккензи) [2016, Драма, криминал, BDRip 720p] iTunes Galfimbul 51514212664.8 GB 0 0 1478756441

08:40

10-Ноя-16

Зарубежные фильмы 2016-2019 (Новинки зарубежного кино) ·· Любой ценой / Hell or High Water (Дэвид Маккензи) [2016, Драма, криминал, HDRip] iTunes Galfimbul 15638405121.46 GB 0 0 1478754782

08:13

10-Ноя-16

Зарубежные фильмы 2016-2019 (Новинки зарубежного кино) ·· Любой ценой / Hell or High Water (Дэвид Маккензи) [2016, Драма, криминал, HDRip] iTunes Galfimbul 780302336744 MB 0 0 1478754777

08:12

10-Ноя-16

Зарубежные фильмы 2016-2019 (Новинки зарубежного кино) ·· Любой ценой / Hell or High Water (Дэвид Маккензи) [2016, Драма, криминал, WEB-DL 720p] iTunes Galfimbul 32185161593 GB 0 0 1474521207

08:13

22-Сен-16

Зарубежные фильмы 2016-2019 (Новинки зарубежного кино) ·· Любой ценой / Hell or High Water (Дэвид Маккензи) [2016, Драма, криминал, WEB-DL 1080p] iTunes Galfimbul 37361390073.48 GB 0 0 1474501637

02:47

22-Сен-16

Еще никто не оставлял запись к записи скачать торрент Любой ценой Hell or High Water . Будь первым!

!Обратная связь