Скачать через торрент Любой ценой Hell or High Water Фильм бесплатно в хорошем качестве torrent

Скачивайте на UnionPeer.org фильмы через торрент без регистрации. Новинки кино в хорошем качестве через торрент. На UnionPeer.org можно скачать через торрент фильмы 2014 и 2015 годов. Самые новые фильмы.

Скачать торрент Любой ценой Hell or High Water бесплатно через .torrent фильм мультфильм сериал

Статистика раздачи
Размер:  3 GB   |    Зарегистрирован:  5 лет 1 месяц   |    .torrent скачан:  32 раза   |   
Раздают:  1  
 

Скачать Любой ценой / Hell or High Water (2016) BDRip 720p | A через torrent

 
 
Автор Сообщение

Galfimbul

avatar Galfimbul


Любой ценой /Hell or High Water

Год выхода: 2016
Жанр: Драма, Криминал, Вестерн
Режиссер: Дэвид Маккензи
В ролях: Джефф Бриджес, Крис Пайн, Бен Фостер, Джил Бирмингем, Дейл Дикки, Уильям Стерчи, Бак Тейлор, Кристин Берг, Кит Мэривезер, Жакмо Буззел

Внимание! Техасские парни себя не сдерживают, поэтому в переводе имеется ненормативная лексика!

О фильме:
Депрессивные просторы южного Техаса. Два безработных брата, разведённый Тоби и недавно откинувшийся из тюряги Таннер каждое утро едут грабить очередное отделение банка, чтобы по-быстрому наколотить денег и расплатиться по родительским долгам за ранчо, а не то в ближайшие дни родовое имение отберут приставы. На участке внезапно отыскалась нефть, и Тоби увидел шанс обеспечить своим сыновьям будущее, во имя чего и пустился в тщательно спланированные бескровные ограбления. По братскому следу идёт старенький рейнджер Маркус, который понял жизнь и не спешит, однако коварный план имеет. Никуда не убегут негодяи от дедушки техасской патрульной службы! Местные жители живут бедно, банкиров не любят и потому грабителям откровенно сочувствуют. Во всяком случае, поначалу...

Официальный сайт

Страна: США
Студия: Film 44, Odd Lot Entertainment, Sidney Kimmel Entertainment
Продолжительность: 01:42:36
Перевод: авторский одноголосый закадровый, Дмитрий Пучков (Goblin)

Файл
Кодек: H.264
Качество: BDRip 720p
Видео: 1280x532, ~3402 Kbps, 23.976 fps
Звук:
AAC, 6 ch, 401 Kbps | Авторский, Goblin (ненормативная лексика)
AC-3, 6 ch, 384 kbps | Оригинал
Субтитры: отсутствуют

Семпл
General
Unique ID : 220574790518985166641221306939624247469 (0xA5F128CEAF11E94AC575603D18C5D0AD)
Complete name : P:devHellOfHighWater-Goblinoutputver2with-originalHell.or.High.Water[2016.BDRip.Goblin].720p.mkv
Format : Matroska
Format version : Version 4 / Version 2
File size : 3.00 GiB
Duration : 1 h 42 min
Overall bit rate : 4 187 kb/s
Encoded date : UTC 2018-12-31 05:44:47
Writing application : mkvmerge v29.0.0 ('Like It Or Not') 64-bit
Writing library : libebml v1.3.6 + libmatroska v1.4.9 / Lavf58.20.100

Video
ID : 1
Format : AVC
Format/Info : Advanced Video Codec
Format profile : [email protected]
Format settings : CABAC / 12 Ref Frames
Format settings, CABAC : Yes
Format settings, ReFrames : 12 frames
Codec ID : V_MPEG4/ISO/AVC
Duration : 1 h 42 min
Bit rate : 3 402 kb/s
Width : 1 280 pixels
Height : 532 pixels
Display aspect ratio : 2.40:1
Frame rate mode : Constant
Frame rate : 23.976 (24000/1001) FPS
Color space : YUV
Chroma subsampling : 4:2:0
Bit depth : 8 bits
Scan type : Progressive
Bits/(Pixel*Frame) : 0.208
Stream size : 2.44 GiB (81%)
Writing library : x264 core 157 r2935 545de2f
Encoding settings : cabac=1 / ref=12 / deblock=1:-1:-1 / analyse=0x3:0x133 / me=umh / subme=10 / psy=1 / psy_rd=1.00:0.15 / mixed_ref=1 / me_range=24 / chroma_me=1 / trellis=2 / 8x8dct=1 / cqm=0 / deadzone=21,11 / fast_pskip=1 / chroma_qp_offset=-3 / threads=6 / lookahead_threads=1 / sliced_threads=0 / nr=0 / decimate=1 / interlaced=0 / bluray_compat=0 / constrained_intra=0 / bframes=8 / b_pyramid=2 / b_adapt=2 / b_bias=0 / direct=3 / weightb=1 / open_gop=0 / weightp=2 / keyint=240 / keyint_min=24 / scenecut=40 / intra_refresh=0 / rc_lookahead=60 / rc=crf / mbtree=1 / crf=17.0 / qcomp=0.60 / qpmin=0 / qpmax=69 / qpstep=4 / vbv_maxrate=62500 / vbv_bufsize=78125 / crf_max=0.0 / nal_hrd=none / filler=0 / ip_ratio=1.40 / aq=1:1.00
Default : Yes
Forced : No
Color range : Limited
Color primaries : BT.709
Transfer characteristics : BT.709
Matrix coefficients : BT.709

Audio #1
ID : 2
Format : AAC
Format/Info : Advanced Audio Codec
Format profile : LC
Codec ID : A_AAC-2
Duration : 1 h 42 min
Bit rate : 401 kb/s
Channel(s) : 6 channels
Channel positions : Front: L C R, Side: L R, LFE
Sampling rate : 48.0 kHz
Frame rate : 46.875 FPS (1024 SPF)
Compression mode : Lossy
Delay relative to video : 85 ms
Stream size : 294 MiB (10%)
Title : Goblin
Language : Russian
Default : Yes
Forced : No

Audio #2
ID : 3
Format : AC-3
Format/Info : Audio Coding 3
Codec ID : A_AC3
Duration : 1 h 42 min
Bit rate mode : Constant
Bit rate : 384 kb/s
Channel(s) : 6 channels
Channel positions : Front: L C R, Side: L R, LFE
Sampling rate : 48.0 kHz
Frame rate : 31.250 FPS (1536 SPF)
Bit depth : 16 bits
Compression mode : Lossy
Delay relative to video : 15 s 0 ms
Stream size : 281 MiB (9%)
Title : Original
Language : English
Service kind : Complete Main
Default : No
Forced : No
Тот же материал в 1080p
Источник http://BlaTor.org

Внимание! AdBlock блокирует показ скриншотов, все вопросы к разработчикам )))
Трекер:  [ 02-Янв-2019 21:50 ]

  

Скачать .torrent

Размер .torrent файла 60 KB


Размер: 3 GB
Хэш (hash) релиза: dcd3b87e886f6d5e91d9441ab85ca6d5477595b8
Подписка на обновления:

Торренты, похожие на Любой ценой Hell or High Water скачать торрент

Форум Название Автор Размер S L Добавлен
Зарубежные фильмы 2016-2019 (Новинки зарубежного кино) ·%· Любой ценой / Hell or High Water (2016) BDRip-HEVC 1080p | Лицензия Galfimbul 60773996925.66 GB 0 0 1587410409

22:20

20-Апр-20

Зарубежные фильмы 2016-2019 (Новинки зарубежного кино) ·%· Любой ценой / Hell or High Water (2016) BDRip от ExKinoRay | Пучков Galfimbul 15698757921.46 GB 0 0 1546725013

00:50

6-Янв-19

Зарубежные фильмы 2016-2019 (Новинки зарубежного кино) ·%· Любой ценой / Hell or High Water (2016) BDRip 1080p | A Galfimbul 75986413027.08 GB 0 0 1546455027

21:50

2-Янв-19

Зарубежные фильмы до 2016 ·· Любой ценой / Hell or High Water (Дэвид Маккензи / David Mackenzie) [2016, США, Триллер, драма, криминал, вестерн, DVD9] R5 Dub Galfimbul 65372651526.09 GB 0 0 1525552235

23:30

5-Май-18

Зарубежные фильмы 2016-2019 (Новинки зарубежного кино) ·· Любой ценой / Hell or High Water (Дэвид Маккензи / David Mackenzie) [2016, драма, криминал, боевик, BDRip] AVO (Гаврилов) Galfimbul 15605166081.45 GB 0 0 1525244468

10:01

2-Май-18

Зарубежные фильмы 2016-2019 (Новинки зарубежного кино) ·· Любой ценой / Hell or High Water (Дэвид Маккензи / David Mackenzie) [2016, США, драма, криминал, боевик, BDRip] AVO (Юрий Немахов) Galfimbul 15605166081.45 GB 0 0 1505707286

07:01

18-Сен-17

Зарубежные фильмы 2016-2019 (Новинки зарубежного кино) ·· Любой ценой / Hell or High Water (Дэвид Маккензи / David Mackenzie) [2016, США, драма, криминал, BDRip] Dub (BD CEE) + Original + Sub (rus,eng) Galfimbul 23435945042.18 GB 0 0 1482933588

16:59

28-Дек-16

Зарубежные фильмы до 2016 ·· Любой ценой / Hell or High Water (Дэвид Маккензи / David Mackenzie) [2016, США, драма, криминал, BDRip 1080p] Dub + Sub (Eng) + Original (Eng) Galfimbul 1548330040614.42 GB 0 0 1481745463

22:57

14-Дек-16

Зарубежные фильмы 2016-2019 (Новинки зарубежного кино) ·· Любой ценой / Hell or High Water (Дэвид Маккензи / David Mackenzie) [2016, США, драма, криминал, BDRip-AVC] Dub Galfimbul 15335312661.43 GB 0 0 1478989668

01:27

13-Ноя-16

Зарубежные фильмы 2016-2019 (Новинки зарубежного кино) ·· Любой ценой / Hell or High Water (Дэвид Маккензи) [2016, Драма, криминал, BDRip 720p] iTunes Galfimbul 51514212664.8 GB 0 0 1478756441

08:40

10-Ноя-16

Зарубежные фильмы 2016-2019 (Новинки зарубежного кино) ·· Любой ценой / Hell or High Water (Дэвид Маккензи) [2016, Драма, криминал, HDRip] iTunes Galfimbul 15638405121.46 GB 0 0 1478754782

08:13

10-Ноя-16

Зарубежные фильмы 2016-2019 (Новинки зарубежного кино) ·· Любой ценой / Hell or High Water (Дэвид Маккензи) [2016, Драма, криминал, HDRip] iTunes Galfimbul 780302336744 MB 0 0 1478754777

08:12

10-Ноя-16

Зарубежные фильмы 2016-2019 (Новинки зарубежного кино) ·· Любой ценой / Hell or High Water (Дэвид Маккензи) [2016, Драма, криминал, WEB-DL 720p] iTunes Galfimbul 32185161593 GB 0 0 1474521207

08:13

22-Сен-16

Зарубежные фильмы 2016-2019 (Новинки зарубежного кино) ·· Любой ценой / Hell or High Water (Дэвид Маккензи) [2016, Драма, криминал, WEB-DL 1080p] iTunes Galfimbul 37361390073.48 GB 0 0 1474501637

02:47

22-Сен-16

Еще никто не оставлял запись к записи скачать торрент Любой ценой Hell or High Water . Будь первым!

!Обратная связь