Скачать через торрент Любой ценой Hell or High Water Фильм бесплатно в хорошем качестве torrent

Скачивайте на UnionPeer.org фильмы через торрент без регистрации. Новинки кино в хорошем качестве через торрент. На UnionPeer.org можно скачать через торрент фильмы 2014 и 2015 годов. Самые новые фильмы.

Скачать торрент Любой ценой Hell or High Water бесплатно через .torrent фильм мультфильм сериал

Статистика раздачи
Размер:  1.45 GB   |    Зарегистрирован:  5 лет 9 месяцев   |    .torrent скачан:  87 раз   |   
Раздают:  1  
 

Скачать Любой ценой / Hell or High Water (Дэвид Маккензи / David Mackenzie) [2016, драма, криминал, боевик, BDRip] AVO (Гаврилов) через torrent

 
 
Автор Сообщение

Galfimbul

avatar Galfimbul


Любой ценой / Hell or High Water

Страна: США
Жанр: драма, криминал, боевик
Год выпуска: 2016
Продолжительность: 01:42:15

Перевод: Авторский (одноголосый закадровый) Андрей Гаврилов
Субтитры: нет
Оригинальная аудиодорожка: нет

Режиссер: Дэвид Маккензи / David Mackenzie

В ролях: Джефф Бриджес, Крис Пайн, Бен Фостер, Джил Бирмингем, Дейл Дикки, Уильям Стерчи, Бак Тейлор, Кристин Берг, Кит Мэривезер, Жакмо Буззел

Описание: Им нужно совсем немного. Каких-то пару тысяч долларов, чтоб выкупить закладную и переписать дом на детей. А значит, окрестным банкам не уйти от дерзких налетов двух отчаянных братьев. Старший - рассудителен, младший - горяч, но так или иначе, а на этом пути им придется столкнуться с рейнджером Гамильтоном! И хотя до пенсии ему пару недель, но если закон был нарушен, значит, нарушителям уже несдобровать. К тому же, в напарниках у Гамильтона - офицер-краснокожий...

Доп. информация:
Релиз от
Рип от Leonard Lew - BDRip

Перевод состоялся благодаря пользователям форума dunhill200: spacenoise, MyxAmoP, luka69, KerkP, karantin66, Energonn, Pain, vovyanskiy, Vimann, mazeu, fly32, Chistobaev, ylnian, gross1978, gumbit, ROLLYTYLER, xerman13, nimph, Таганский, Volshebnik, DreamRW

Сэмпл: http://multi-up.com/1196846

Качество видео: BDRip
Формат видео: AVI

Видео: XviD; 720x304 (2,35:1); 1641 Kbps; 23,976 fps; 0,313 bit/pixel
Аудио: AC3; 48 kHz, 384 Kbps; CBR; 6 ch
Общее
Полное имя : Hell.or.High.Water.2016.BDRip.Gavrilov.lumpeN.avi
Формат : AVI
Формат/Информация : Audio Video Interleave
Размер файла : 1,45 Гбайт
Продолжительность : 1 ч. 42 м.
Общий поток : 2035 Кбит/сек
Название фильма : lumpeN
Программа кодирования : VirtualDubMod 1.5.10.3 | www.virtualdub-fr.org || (build 2550/release)
Библиотека кодирования : VirtualDubMod build 2550/release

Видео
Идентификатор : 0
Формат : MPEG-4 Visual
Профиль формата : Advanced Simple@L5
Настройки формата : BVOP2 / Custom Matrix
Параметр BVOP формата : 2
Параметр QPel формата : Нет
Параметр GMC формата : Без точки перехода
Параметр матрицы формата : Выборочная
Идентификатор кодека : XVID
Идентификатор кодека/Подсказка : XviD
Продолжительность : 1 ч. 42 м.
Битрейт : 1641 Кбит/сек
Ширина : 720 пикселей
Высота : 304 пикселя
Соотношение сторон : 2,35:1
Частота кадров : 23,976 (24000/1001) кадра/сек
Цветовое пространство : YUV
Субдискретизация насыщенности : 4:2:0
Битовая глубина : 8 бит
Тип развёртки : Прогрессивная
Метод сжатия : С потерями
Бит/(Пиксели*Кадры) : 0.313
Размер потока : 1,17 Гбайт (81%)
Библиотека кодирования : XviD 73

Аудио
Идентификатор : 1
Формат : AC-3
Формат/Информация : Audio Coding 3
Идентификатор кодека : 2000
Продолжительность : 1 ч. 42 м.
Вид битрейта : Постоянный
Битрейт : 384 Кбит/сек
Каналы : 6 каналов
Расположение каналов : Front: L C R, Side: L R, LFE
Частота : 48,0 КГц
Частота кадров : 31,250 кадров/сек (1536 SPF)
Битовая глубина : 16 бит
Метод сжатия : С потерями
Размер потока : 281 Мбайт (19%)
Выравнивание : Разделение по промежуткам
Продолжительность промежутка : 42 мс. (1,00 видеокадр)
Время предзагрузки промежутка : 500 мс.
Заголовок : Gavrilov
ServiceKind/String : Complete Main


Внимание! AdBlock блокирует показ скриншотов, все вопросы к разработчикам )))
Трекер:  [ 02-Май-2018 10:01 ]

  

Скачать .torrent

Размер .torrent файла 15 KB


Размер: 1.45 GB
Хэш (hash) релиза: 5ce3fc065f1fabacebd168ec722d9f8bbb1c4a25
Подписка на обновления:

Торренты, похожие на Любой ценой Hell or High Water скачать торрент

Форум Название Автор Размер S L Добавлен
Зарубежные фильмы 2016-2019 (Новинки зарубежного кино) ·%· Любой ценой / Hell or High Water (2016) BDRip-HEVC 1080p | Лицензия Galfimbul 60773996925.66 GB 0 0 1587410409

22:20

20-Апр-20

Зарубежные фильмы 2016-2019 (Новинки зарубежного кино) ·%· Любой ценой / Hell or High Water (2016) BDRip от ExKinoRay | Пучков Galfimbul 15698757921.46 GB 0 0 1546725013

00:50

6-Янв-19

Зарубежные фильмы 2016-2019 (Новинки зарубежного кино) ·%· Любой ценой / Hell or High Water (2016) BDRip 720p | A Galfimbul 32225182803 GB 0 0 1546455038

21:50

2-Янв-19

Зарубежные фильмы 2016-2019 (Новинки зарубежного кино) ·%· Любой ценой / Hell or High Water (2016) BDRip 1080p | A Galfimbul 75986413027.08 GB 0 0 1546455027

21:50

2-Янв-19

Зарубежные фильмы до 2016 ·· Любой ценой / Hell or High Water (Дэвид Маккензи / David Mackenzie) [2016, США, Триллер, драма, криминал, вестерн, DVD9] R5 Dub Galfimbul 65372651526.09 GB 0 0 1525552235

23:30

5-Май-18

Зарубежные фильмы 2016-2019 (Новинки зарубежного кино) ·· Любой ценой / Hell or High Water (Дэвид Маккензи / David Mackenzie) [2016, США, драма, криминал, боевик, BDRip] AVO (Юрий Немахов) Galfimbul 15605166081.45 GB 0 0 1505707286

07:01

18-Сен-17

Зарубежные фильмы 2016-2019 (Новинки зарубежного кино) ·· Любой ценой / Hell or High Water (Дэвид Маккензи / David Mackenzie) [2016, США, драма, криминал, BDRip] Dub (BD CEE) + Original + Sub (rus,eng) Galfimbul 23435945042.18 GB 0 0 1482933588

16:59

28-Дек-16

Зарубежные фильмы до 2016 ·· Любой ценой / Hell or High Water (Дэвид Маккензи / David Mackenzie) [2016, США, драма, криминал, BDRip 1080p] Dub + Sub (Eng) + Original (Eng) Galfimbul 1548330040614.42 GB 0 0 1481745463

22:57

14-Дек-16

Зарубежные фильмы 2016-2019 (Новинки зарубежного кино) ·· Любой ценой / Hell or High Water (Дэвид Маккензи / David Mackenzie) [2016, США, драма, криминал, BDRip-AVC] Dub Galfimbul 15335312661.43 GB 0 0 1478989668

01:27

13-Ноя-16

Зарубежные фильмы 2016-2019 (Новинки зарубежного кино) ·· Любой ценой / Hell or High Water (Дэвид Маккензи) [2016, Драма, криминал, BDRip 720p] iTunes Galfimbul 51514212664.8 GB 0 0 1478756441

08:40

10-Ноя-16

Зарубежные фильмы 2016-2019 (Новинки зарубежного кино) ·· Любой ценой / Hell or High Water (Дэвид Маккензи) [2016, Драма, криминал, HDRip] iTunes Galfimbul 15638405121.46 GB 0 0 1478754782

08:13

10-Ноя-16

Зарубежные фильмы 2016-2019 (Новинки зарубежного кино) ·· Любой ценой / Hell or High Water (Дэвид Маккензи) [2016, Драма, криминал, HDRip] iTunes Galfimbul 780302336744 MB 0 0 1478754777

08:12

10-Ноя-16

Зарубежные фильмы 2016-2019 (Новинки зарубежного кино) ·· Любой ценой / Hell or High Water (Дэвид Маккензи) [2016, Драма, криминал, WEB-DL 720p] iTunes Galfimbul 32185161593 GB 0 0 1474521207

08:13

22-Сен-16

Зарубежные фильмы 2016-2019 (Новинки зарубежного кино) ·· Любой ценой / Hell or High Water (Дэвид Маккензи) [2016, Драма, криминал, WEB-DL 1080p] iTunes Galfimbul 37361390073.48 GB 0 0 1474501637

02:47

22-Сен-16

Еще никто не оставлял запись к записи скачать торрент Любой ценой Hell or High Water . Будь первым!

!Обратная связь