Скачать через торрент Сноуден Snowden Фильм бесплатно в хорошем качестве torrent

Скачивайте на UnionPeer.org фильмы через торрент без регистрации. Новинки кино в хорошем качестве через торрент. На UnionPeer.org можно скачать через торрент фильмы 2014 и 2015 годов. Самые новые фильмы.

Скачать торрент Сноуден Snowden бесплатно через .torrent фильм мультфильм сериал

Статистика раздачи
Размер:  7.1 GB   |    Зарегистрирован:  7 лет 1 месяц   |    .torrent скачан:  86 раз   |   
Раздают:  1  
 

Скачать Сноуден / Snowden (Оливер Стоун / Oliver Stone) [2016, Франция, Германия, США, триллер, драма, биография, BDRip 720p] Dub (iTunes) + Sub Rus, Eng + Original Eng через torrent

 
 
Автор Сообщение

Galfimbul

avatar Galfimbul


Сноуден / Snowden

Страна: Франция, Германия, США
Студия: Endgame Entertainment, KrautPack Entertainment, Vendian Entertainment
Жанр: Триллер, драма, биография
Год выпуска: 2016
Продолжительность: 02:14:49

Перевод: Профессиональный (дублированный) iTunes
Cубтитры: Rus, Eng
Оригинальная аудиодорожка: английский

Режиссер: Оливер Стоун / Oliver Stone

В ролях: Джозеф Гордон-Левитт, Шейлин Вудли, Мелисса Лео, Закари Куинто, Том Уилкинсон, Скотт Иствуд, Рис Иванс, Николас Кейдж, Тимоти Олифант, Джеймс Батлер

Описание: Он мечтал продолжить семейную традицию и посвятить свою жизнь служению Родине. Он безоговорочно верил в правительство США и поддерживал антитеррористическую программу. На заре его карьеры в спецслужбах никто, даже он сам, не мог бы предположить, что именно он, Эдвард Сноуден, совершит самое крупное разоблачение в мировой истории, обнародовав секретные документы, касающиеся тотальной слежки США за своими гражданами и гражданами других государств. Открыв миру глаза на правду, он навсегда закрыл для себя двери в счастливое будущее: отказался от карьеры, любимой девушки и Родины, которая назвала его предателем…



Тип релиза: BDRip 720p
Контейнер: MKV

Видео: MPEG-4 AVC, 6361 Кбит/с, 1280x534, 23,976 fps
Аудио: Rus, AC3, 384 kb/s (6 ch), 48 kHz
Аудио 2: Eng, AC3, 640 kb/s (6 ch), 48 kHz
Формат субтитров: softsub (SRT)
x264 [info]: frame I:2160 Avg QP:14.81 size:131878
x264 [info]: frame P:30094 Avg QP:16.28 size: 69886
x264 [info]: frame B:161690 Avg QP:19.00 size: 25933

Format : Matroska
Format version : Version 4 / Version 2
File size : 7.10 GiB
Duration : 2h 14mn
Overall bit rate : 7 535 Kbps
Movie name : Сноуден. (Tonik)
Encoded date : UTC 2016-12-22 18:44:08
Writing application : mkvmerge v7.1.0 ('Good Love') 64bit built on Jul 27 2014 13:06:55
Writing library : libebml v1.3.0 + libmatroska v1.4.1
_STATISTICS_WRITING_APP : mkvmerge v7.1.0 ('Good Love') 64bit built on Jul 27 2014 13:06:55
_STATISTICS_WRITING_DATE_UTC : 2016-12-22 18:44:08
_STATISTICS_TAGS : BPS DURATION NUMBER_OF_FRAMES NUMBER_OF_BYTES
DURATION : 02:14:49.056000000
NUMBER_OF_FRAMES : 252783
NUMBER_OF_BYTES : 388274688

Video
ID : 1
Format : AVC
Format/Info : Advanced Video Codec
Format profile : [email protected]
Format settings, CABAC : Yes
Format settings, ReFrames : 5 frames
Codec ID : V_MPEG4/ISO/AVC
Duration : 2h 14mn
Bit rate : 6 361 Kbps
Width : 1 280 pixels
Height : 534 pixels
Display aspect ratio : 2.40:1
Frame rate mode : Constant
Frame rate : 23.976 fps
Color space : YUV
Chroma subsampling : 4:2:0
Bit depth : 8 bits
Scan type : Progressive
Bits/(Pixel*Frame) : 0.388
Stream size : 5.99 GiB (84%)
Writing library : x264 core 148 r2744 b97ae06
Encoding settings : cabac=1 / ref=5 / deblock=1:-3:-3 / analyse=0x3:0x113 / me=tesa / subme=11 / psy=1 / psy_rd=1.05:0.00 / mixed_ref=1 / me_range=16 / chroma_me=1 / trellis=2 / 8x8dct=1 / cqm=0 / deadzone=21,11 / fast_pskip=0 / chroma_qp_offset=-2 / threads=12 / lookahead_threads=1 / sliced_threads=0 / nr=0 / decimate=1 / interlaced=0 / bluray_compat=0 / constrained_intra=0 / bframes=11 / b_pyramid=2 / b_adapt=1 / b_bias=0 / direct=3 / weightb=1 / open_gop=0 / weightp=2 / keyint=250 / keyint_min=23 / scenecut=40 / intra_refresh=0 / rc=crf / mbtree=0 / crf=16.0 / qcomp=0.70 / qpmin=0 / qpmax=69 / qpstep=4 / ip_ratio=1.40 / pb_ratio=1.30 / aq=1:0.70
Language : English
Default : Yes
Forced : No
Matrix coefficients : BT.709
_STATISTICS_WRITING_APP : mkvmerge v7.1.0 ('Good Love') 64bit built on Jul 27 2014 13:06:55
_STATISTICS_WRITING_DATE_UTC : 2016-12-22 18:44:08
_STATISTICS_TAGS : BPS DURATION NUMBER_OF_FRAMES NUMBER_OF_BYTES
DURATION : 02:14:49.081000000
NUMBER_OF_FRAMES : 193944
NUMBER_OF_BYTES : 6581123131

Audio #1
ID : 2
Format : AC-3
Format/Info : Audio Coding 3
Mode extension : CM (complete main)
Format settings, Endianness : Big
Codec ID : A_AC3
Duration : 2h 14mn
Bit rate mode : Constant
Bit rate : 384 Kbps
Channel(s) : 6 channels
Channel positions : Front: L C R, Side: L R, LFE
Sampling rate : 48.0 KHz
Bit depth : 16 bits
Compression mode : Lossy
Stream size : 370 MiB (5%)
Title : iTunes
Language : Russian
Default : Yes
Forced : No

Audio #2
ID : 3
Format : AC-3
Format/Info : Audio Coding 3
Mode extension : CM (complete main)
Format settings, Endianness : Big
Codec ID : A_AC3
Duration : 2h 14mn
Bit rate mode : Constant
Bit rate : 640 Kbps
Channel(s) : 6 channels
Channel positions : Front: L C R, Side: L R, LFE
Sampling rate : 48.0 KHz
Bit depth : 16 bits
Compression mode : Lossy
Stream size : 617 MiB (8%)
Language : English
Default : No
Forced : No

Text #1
ID : 4
Format : UTF-8
Codec ID : S_TEXT/UTF8
Codec ID/Info : UTF-8 Plain Text
Language : Russian
Default : No
Forced : No

Text #2
ID : 5
Format : UTF-8
Codec ID : S_TEXT/UTF8
Codec ID/Info : UTF-8 Plain Text
Title : SDH
Language : English
Default : No
Forced : No

Menu
00:00:00.000 : en:00:00:00.000
00:07:42.379 : en:00:07:42.379
00:15:49.991 : en:00:15:49.991
00:20:06.038 : en:00:20:06.038
00:26:32.007 : en:00:26:32.007
00:30:10.976 : en:00:30:10.976
00:35:30.211 : en:00:35:30.211
00:41:42.875 : en:00:41:42.875
00:51:45.769 : en:00:51:45.769
00:59:14.301 : en:00:59:14.301
01:04:44.547 : en:01:04:44.547
01:12:47.822 : en:01:12:47.822
01:18:07.474 : en:01:18:07.474
01:25:11.398 : en:01:25:11.398
01:30:30.717 : en:01:30:30.717
01:38:11.427 : en:01:38:11.427
01:50:06.141 : en:01:50:06.141
01:57:00.472 : en:01:57:00.472
02:03:22.353 : en:02:03:22.353
02:07:49.161 : en:02:07:49.161


Внимание! AdBlock блокирует показ скриншотов, все вопросы к разработчикам )))
Трекер:  [ 27-Дек-2016 19:00 ]

  

Скачать .torrent

Размер .torrent файла 18 KB


Размер: 7.1 GB
Хэш (hash) релиза: 4a7b7185e0992378d2848b2f2bead428a61e81c3
Подписка на обновления:

Торренты, похожие на Сноуден Snowden скачать торрент

Форум Название Автор Размер S L Добавлен
Зарубежные фильмы 2016-2019 (Новинки зарубежного кино) ·%· Сноуден / Snowden (2016) BDRip-AVC от OlLanDGroup | D, A | iTunes Galfimbul 36936465553.44 GB 0 0 1550761810

18:10

21-Фев-19

Зарубежные фильмы 2016-2019 (Новинки зарубежного кино) ·· Сноуден / Snowden (Оливер Стоун / Oliver Stone) [2016, Франция, Германия, США, триллер, драма, биография, BDRip-AVC] Dub + Original + Sub (rus, eng) Galfimbul 31356546062.92 GB 0 0 1483442373

14:19

3-Янв-17

Зарубежные фильмы 2016-2019 (Новинки зарубежного кино) ·· Сноуден / Snowden (Оливер Стоун / Oliver Stone) [2016, Франция, Германия, США, триллер, драма, биография, BDRip-AVC] Dub + Original + Sub (rus, eng) Galfimbul 22976985282.14 GB 0 0 1483442370

14:19

3-Янв-17

Зарубежные фильмы 2016-2019 (Новинки зарубежного кино) ·· Сноуден / Snowden (Оливер Стоун / Oliver Stone) [2016, Франция, Германия, США, триллер, драма, биография, BDRip-AVC] Dub Galfimbul 15722076371.46 GB 0 0 1483442367

14:19

3-Янв-17

Зарубежные фильмы 2016-2019 (Новинки зарубежного кино) ·· Сноуден / Snowden (Оливер Стоун / Oliver Stone) [2016, США, триллер, драма, биография, BDRip] Dub Galfimbul 15657349121.46 GB 0 0 1483442361

14:19

3-Янв-17

Зарубежные фильмы до 2016 ·· Сноуден / Snowden (Оливер Стоун / Oliver Stone) [2016, Франция, Германия, США, триллер, драма, биография, BDRip 1080p] Dub (iTunes) + Sub Eng + Original Eng Galfimbul 1935229945318.02 GB 0 0 1482857931

19:58

27-Дек-16

Зарубежные фильмы 2016-2019 (Новинки зарубежного кино) ·· Сноуден / Snowden (Оливер Стоун / Oliver Stone) [2016, США, Триллер, драма, биография, HDRip] Dub (iTunes) + Original (Eng) + Sub (rus,eng) Galfimbul 23190679752.16 GB 0 0 1482726562

07:29

26-Дек-16

Зарубежные фильмы 2016-2019 (Новинки зарубежного кино) ·· Сноуден / Snowden (Оливер Стоун / Oliver Stone) [2016, США, Триллер, драма, биография, BDRip 1080p] Line Galfimbul 1095237836810.2 GB 0 0 1481357618

11:13

10-Дек-16

Зарубежные фильмы 2016-2019 (Новинки зарубежного кино) ·· Сноуден / Snowden (Оливер Стоун / Oliver Stone) [2016, США, Триллер, драма, биография, WEB-DLRip] Dub (Line) + Original (Eng) Galfimbul 15717130241.46 GB 0 0 1479931280

23:01

23-Ноя-16

Зарубежные фильмы 2016-2019 (Новинки зарубежного кино) ·· Сноуден / Snowden (2016) WEB-DLRip от Scarabey | Line Galfimbul 15539630081.45 GB 0 0 1479921312

20:15

23-Ноя-16

Зарубежные фильмы 2016-2019 (Новинки зарубежного кино) ·· Сноуден / Snowden (Оливер Стоун) [2016, триллер, драма, биография, WEB-DLRip 1080р] Line Galfimbul 51305396414.78 GB 0 0 1479791953

08:19

22-Ноя-16

Зарубежные фильмы 2016-2019 (Новинки зарубежного кино) ·· Сноуден / Snowden (Оливер Стоун) [2016, триллер, драма, биография, WEB-DLRip 720р] Line Galfimbul 33864198703.15 GB 0 0 1479791949

08:19

22-Ноя-16

Зарубежные фильмы 2016-2019 (Новинки зарубежного кино) ·· Сноуден / Snowden (Оливер Стоун) [2016, триллер, драма, биография, WEB-DLRip] Line Galfimbul 18131224771.69 GB 0 0 1479791945

08:19

22-Ноя-16

Зарубежные фильмы 2016-2019 (Новинки зарубежного кино) ·· Сноуден / Snowden (Оливер Стоун) [2016, триллер, драма, биография, WEB-DL 1080р] Звук с CAMRip Galfimbul 53183305264.95 GB 0 0 1479719614

12:13

21-Ноя-16

Зарубежные фильмы 2016-2019 (Новинки зарубежного кино) ·· Сноуден / Snowden (Оливер Стоун) [2016, триллер, драма, биография, WEB-DLRip] Звук с CAMRip Galfimbul 22041088002.05 GB 0 0 1479181399

06:43

15-Ноя-16

Зарубежные фильмы 2016-2019 (Новинки зарубежного кино) ·· Сноуден / Snowden (Оливер Стоун) [2016, триллер, драма, биография, WEB-DLRip] Звук с CAMRip Galfimbul 14678691841.37 GB 0 0 1479181395

06:43

15-Ноя-16

Зарубежные фильмы 2016-2019 (Новинки зарубежного кино) ·· Сноуден / Snowden (Оливер Стоун) [2016, триллер, драма, биография, WEB-DLRip 720р] Звук с CAMRip Galfimbul 46040607424.29 GB 0 0 1479181390

06:43

15-Ноя-16

Зарубежные фильмы 2016-2019 (Новинки зарубежного кино) ·· Сноуден / Snowden (Оливер Стоун) [2016, триллер, драма, биография, WEB-DLRip 1080р] Звук с CAMRip Galfimbul 52339460974.87 GB 0 0 1479181383

06:43

15-Ноя-16

Еще никто не оставлял запись к записи скачать торрент Сноуден Snowden . Будь первым!

!Обратная связь