Скачать через торрент Сноуден Snowden Фильм бесплатно в хорошем качестве torrent

Скачивайте на UnionPeer.org фильмы через торрент без регистрации. Новинки кино в хорошем качестве через торрент. На UnionPeer.org можно скачать через торрент фильмы 2014 и 2015 годов. Самые новые фильмы.

Скачать торрент Сноуден Snowden бесплатно через .torrent фильм мультфильм сериал

Статистика раздачи
Размер:  3.44 GB   |    Зарегистрирован:  5 лет   |    .torrent скачан:  55 раз   |   
Раздают:  1  
 

Скачать Сноуден / Snowden (2016) BDRip-AVC от OlLanDGroup | D, A | iTunes через torrent

 
 
Автор Сообщение

Galfimbul

avatar Galfimbul


Сноуден / Snowden
«Беги, пока можешь»


Год выпуска: 2016
Страна: Франция, Германия, США
Производство: Endgame Entertainment, KrautPack Entertainment
Жанр: Триллер, драма, биография
Режиссёр: Оливер Стоун
В ролях: Джозеф Гордон-Левитт, Шейлин Вудли, Мелисса Лео, Закари Куинто, Том Уилкинсон, Скотт Иствуд, Рис Иванс, Николас Кейдж, Тимоти Олифант, Джеймс Батлер
Перевод: Дублированный | [iTunes], Авторский (одноголосый, закадровый) | [Сергей Визгунов]
Субтитры: Русские (форс., полные), английские (полные, SDH)
Реклама: Отсутствует

Описание: Он мечтал продолжить семейную традицию и посвятить свою жизнь служению Родине. Он безоговорочно верил в правительство США и поддерживал антитеррористическую программу. На заре его карьеры в спецслужбах никто, даже он сам, не мог бы предположить, что именно он, Эдвард Сноуден, совершит самое крупное разоблачение в мировой истории, обнародовав секретные документы, касающиеся тотальной слежки США за своими гражданами и гражданами других государств. Открыв миру глаза на правду, он навсегда закрыл для себя двери в счастливое будущее: отказался от карьеры, любимой девушки и Родины, которая назвала его предателем...


Качество: BDRip-AVC | BDRemux | Сноуден / Snowden (2016) BDRemux 1080p от ExKinoRay
Продолжительность: 02:14:49

Формат: MKV
Видео кодек: MPEG-4 AVC
Аудио кодек: AC3
Видео: 1024x426 (2.40:1), 24,000 fps, x264 ~2 366 kbps avg, 0.226 bit/pixel
Аудио #1: 48 kHz, AC3 Dolby Digital, 3/2 (L,C,R,l,r) + LFE ch, ~384.00 kbps avg | RUS (iTunes)
Аудио #2: 48 kHz, AC3 Dolby Digital, 3/2 (L,C,R,l,r) + LFE ch, ~448.00 kbps avg | RUS (Визгунов)
Аудио #3: 48 kHz, AC3 Dolby Digital, 3/2 (L,C,R,l,r) + LFE ch, ~448.00 kbps avg | ENG
Дата премьеры (мир): 21 июля 2016
Дата премьеры (РФ): 15 сентября 2016, «Централ Партнершип»
Цифровой релиз: 22 декабря 2016, «Централ Партнершип»
Общее
Уникальный идентификатор : 101460650902472192202206083358316152390 (0x4C549C4EA4CFD91E4885BEAACB75C646)
Полное имя : F:OlLanDGroupSnowden.2016.BDRip(AVC).OlLanDGroup.mkv
Формат : Matroska
Версия формата : Version 4 / Version 2
Размер файла : 3,44 Гбайт
Продолжительность : 2 ч. 14 м.
Общий поток : 3653 Кбит/сек
Название фильма : Snowden (2016) #TorpedoUK#
Дата кодирования : UTC 2019-02-21 14:36:40
Программа кодирования : mkvmerge v29.0.0 ('Like It Or Not') 64-bit
Библиотека кодирования : libebml v1.3.6 + libmatroska v1.4.9

Видео
Идентификатор : 1
Формат : AVC
Формат/Информация : Advanced Video Codec
Профиль формата : [email protected]
Параметр CABAC формата : Да
Параметр ReFrames формата : 10 кадров
Идентификатор кодека : V_MPEG4/ISO/AVC
Продолжительность : 2 ч. 14 м.
Битрейт : 2366 Кбит/сек
Ширина : 1024 пикселя
Высота : 426 пикселей
Соотношение сторон : 2,40:1
Режим частоты кадров : Постоянный
Частота кадров : 23,976 (24000/1001) кадра/сек
Цветовое пространство : YUV
Субдискретизация насыщенности : 4:2:0
Битовая глубина : 8 бит
Тип развёртки : Прогрессивная
Бит/(Пиксели*Кадры) : 0.226
Размер потока : 2,23 Гбайт (65%)
Библиотека кодирования : x264 core 146 r2538 121396c
Настройки программы : cabac=1 / ref=10 / deblock=1:-3:-3 / analyse=0x3:0x133 / me=umh / subme=11 / psy=1 / psy_rd=1.00:0.06 / mixed_ref=1 / me_range=48 / chroma_me=1 / trellis=2 / 8x8dct=1 / cqm=0 / deadzone=21,11 / fast_pskip=0 / chroma_qp_offset=-3 / threads=6 / lookahead_threads=1 / sliced_threads=0 / nr=0 / decimate=0 / interlaced=0 / bluray_compat=0 / constrained_intra=0 / bframes=10 / b_pyramid=2 / b_adapt=2 / b_bias=0 / direct=3 / weightb=1 / open_gop=0 / weightp=2 / keyint=240 / keyint_min=23 / scenecut=40 / intra_refresh=0 / rc_lookahead=40 / rc=2pass / mbtree=0 / bitrate=2366 / ratetol=1.0 / qcomp=0.60 / qpmin=0 / qpmax=69 / qpstep=4 / cplxblur=20.0 / qblur=0.5 / vbv_maxrate=50000 / vbv_bufsize=62500 / nal_hrd=none / filler=0 / ip_ratio=1.40 / pb_ratio=1.30 / aq=1:1.00
Default : Да
Forced : Нет
Цветовой диапазон : Limited
Основные цвета : BT.709
Характеристики трансфера : BT.709
Коэффициенты матрицы : BT.709

Аудио #1
Идентификатор : 2
Формат : AC-3
Формат/Информация : Audio Coding 3
Расширение режима : CM (complete main)
Параметр Endianness формата : Big
Идентификатор кодека : A_AC3
Продолжительность : 2 ч. 14 м.
Вид битрейта : Постоянный
Битрейт : 384 Кбит/сек
Каналы : 6 каналов
Расположение каналов : Front: L C R, Side: L R, LFE
Частота : 48,0 КГц
Частота кадров : 31,250 кадров/сек (1536 spf)
Битовая глубина : 16 бит
Метод сжатия : С потерями
Размер потока : 370 Мбайт (11%)
Заголовок : Dub | DD 5.1 @ 384 kbps - iTunes
Язык : Russian
Default : Да
Forced : Нет

Аудио #2
Идентификатор : 3
Формат : AC-3
Формат/Информация : Audio Coding 3
Расширение режима : CM (complete main)
Параметр Endianness формата : Big
Идентификатор кодека : A_AC3
Продолжительность : 2 ч. 14 м.
Вид битрейта : Постоянный
Битрейт : 448 Кбит/сек
Каналы : 6 каналов
Расположение каналов : Front: L C R, Side: L R, LFE
Частота : 48,0 КГц
Частота кадров : 31,250 кадров/сек (1536 spf)
Битовая глубина : 16 бит
Метод сжатия : С потерями
Размер потока : 432 Мбайт (12%)
Заголовок : Avo | DD 5.1 @ 448 kbps - Визгунов
Язык : Russian
Default : Нет
Forced : Нет

Аудио #3
Идентификатор : 4
Формат : AC-3
Формат/Информация : Audio Coding 3
Расширение режима : CM (complete main)
Параметр Endianness формата : Big
Идентификатор кодека : A_AC3
Продолжительность : 2 ч. 14 м.
Вид битрейта : Постоянный
Битрейт : 448 Кбит/сек
Каналы : 6 каналов
Расположение каналов : Front: L C R, Side: L R, LFE
Частота : 48,0 КГц
Частота кадров : 31,250 кадров/сек (1536 spf)
Битовая глубина : 16 бит
Метод сжатия : С потерями
Размер потока : 432 Мбайт (12%)
Заголовок : Original | DD 5.1 @ 448 kbps
Язык : English
Default : Нет
Forced : Нет

Текст #1
Идентификатор : 5
Формат : UTF-8
Идентификатор кодека : S_TEXT/UTF8
Идентификатор кодека/Информация : UTF-8 Plain Text
Продолжительность : 2 ч. 9 м.
Битрейт : 0 бит/сек
Count of elements : 10
Размер потока : 432 байт (0%)
Заголовок : Forced
Язык : Russian
Default : Да
Forced : Нет

Текст #2
Идентификатор : 6
Формат : UTF-8
Идентификатор кодека : S_TEXT/UTF8
Идентификатор кодека/Информация : UTF-8 Plain Text
Продолжительность : 2 ч. 9 м.
Битрейт : 104 бит/сек
Count of elements : 1394
Размер потока : 99,0 Кбайт (0%)
Заголовок : Full
Язык : Russian
Default : Нет
Forced : Нет

Текст #3
Идентификатор : 7
Формат : UTF-8
Идентификатор кодека : S_TEXT/UTF8
Идентификатор кодека/Информация : UTF-8 Plain Text
Продолжительность : 2 ч. 9 м.
Битрейт : 76 бит/сек
Count of elements : 2032
Размер потока : 72,0 Кбайт (0%)
Заголовок : Full
Язык : English
Default : Нет
Forced : Нет

Текст #4
Идентификатор : 8
Формат : UTF-8
Идентификатор кодека : S_TEXT/UTF8
Идентификатор кодека/Информация : UTF-8 Plain Text
Продолжительность : 2 ч. 9 м.
Битрейт : 84 бит/сек
Count of elements : 2176
Размер потока : 80,8 Кбайт (0%)
Заголовок : SDH
Язык : English
Default : Нет
Forced : Нет

Текст #5
Идентификатор : 9
Формат : UTF-8
Идентификатор кодека : S_TEXT/UTF8
Идентификатор кодека/Информация : UTF-8 Plain Text
Продолжительность : 2 ч. 10 м.
Битрейт : 96 бит/сек
Count of elements : 2177
Размер потока : 92,2 Кбайт (0%)
Заголовок : SDH-Colored
Язык : English
Default : Нет
Forced : Нет

Меню
00:00:00.000 : en:(01)00:00:00:000
00:07:42.377 : en:(02)00:07:42:377
00:15:49.990 : en:(03)00:15:49:990
00:20:06.038 : en:(04)00:20:06:038
00:26:32.007 : en:(05)00:26:32:007
00:30:10.974 : en:(06)00:30:10:974
00:35:30.210 : en:(07)00:35:30:210
00:41:42.875 : en:(08)00:41:42:875
00:51:45.768 : en:(09)00:51:45:768
00:59:14.300 : en:(10)00:59:14:300
01:04:44.547 : en:(11)01:04:44:547
01:12:47.820 : en:(12)01:12:47:820
01:18:07.474 : en:(13)01:18:07:474
01:25:11.396 : en:(14)01:25:11:396
01:30:30.716 : en:(15)01:30:30:716
01:38:11.426 : en:(16)01:38:11:426
01:50:06.140 : en:(17)01:50:06:140
01:57:00.470 : en:(18)01:57:00:470
02:03:22.353 : en:(19)02:03:22:353
02:07:49.161 : en:(20)02:07:49:161
02:14:48.829 : en:(21)02:14:48:829
Источник http://BlaTor.org

Внимание! AdBlock блокирует показ скриншотов, все вопросы к разработчикам )))
Трекер:  [ 21-Фев-2019 18:10 ]

  

Скачать .torrent

Размер .torrent файла 17 KB


Размер: 3.44 GB
Хэш (hash) релиза: d439ac90848cab5ee4b1637eed6df3af30524ae4
Подписка на обновления:

Торренты, похожие на Сноуден Snowden скачать торрент

Форум Название Автор Размер S L Добавлен
Зарубежные фильмы 2016-2019 (Новинки зарубежного кино) ·· Сноуден / Snowden (Оливер Стоун / Oliver Stone) [2016, Франция, Германия, США, триллер, драма, биография, BDRip-AVC] Dub + Original + Sub (rus, eng) Galfimbul 31356546062.92 GB 0 0 1483442373

14:19

3-Янв-17

Зарубежные фильмы 2016-2019 (Новинки зарубежного кино) ·· Сноуден / Snowden (Оливер Стоун / Oliver Stone) [2016, Франция, Германия, США, триллер, драма, биография, BDRip-AVC] Dub + Original + Sub (rus, eng) Galfimbul 22976985282.14 GB 0 0 1483442370

14:19

3-Янв-17

Зарубежные фильмы 2016-2019 (Новинки зарубежного кино) ·· Сноуден / Snowden (Оливер Стоун / Oliver Stone) [2016, Франция, Германия, США, триллер, драма, биография, BDRip-AVC] Dub Galfimbul 15722076371.46 GB 0 0 1483442367

14:19

3-Янв-17

Зарубежные фильмы 2016-2019 (Новинки зарубежного кино) ·· Сноуден / Snowden (Оливер Стоун / Oliver Stone) [2016, США, триллер, драма, биография, BDRip] Dub Galfimbul 15657349121.46 GB 0 0 1483442361

14:19

3-Янв-17

Зарубежные фильмы до 2016 ·· Сноуден / Snowden (Оливер Стоун / Oliver Stone) [2016, Франция, Германия, США, триллер, драма, биография, BDRip 1080p] Dub (iTunes) + Sub Eng + Original Eng Galfimbul 1935229945318.02 GB 0 0 1482857931

19:58

27-Дек-16

Зарубежные фильмы до 2016 ·· Сноуден / Snowden (Оливер Стоун / Oliver Stone) [2016, Франция, Германия, США, триллер, драма, биография, BDRip 720p] Dub (iTunes) + Sub Rus, Eng + Original Eng Galfimbul 76190331287.1 GB 0 0 1482857902

19:58

27-Дек-16

Зарубежные фильмы 2016-2019 (Новинки зарубежного кино) ·· Сноуден / Snowden (Оливер Стоун / Oliver Stone) [2016, США, Триллер, драма, биография, HDRip] Dub (iTunes) + Original (Eng) + Sub (rus,eng) Galfimbul 23190679752.16 GB 0 0 1482726562

07:29

26-Дек-16

Зарубежные фильмы 2016-2019 (Новинки зарубежного кино) ·· Сноуден / Snowden (Оливер Стоун / Oliver Stone) [2016, США, Триллер, драма, биография, BDRip 1080p] Line Galfimbul 1095237836810.2 GB 0 0 1481357618

11:13

10-Дек-16

Зарубежные фильмы 2016-2019 (Новинки зарубежного кино) ·· Сноуден / Snowden (Оливер Стоун / Oliver Stone) [2016, США, Триллер, драма, биография, WEB-DLRip] Dub (Line) + Original (Eng) Galfimbul 15717130241.46 GB 0 0 1479931280

23:01

23-Ноя-16

Зарубежные фильмы 2016-2019 (Новинки зарубежного кино) ·· Сноуден / Snowden (2016) WEB-DLRip от Scarabey | Line Galfimbul 15539630081.45 GB 0 0 1479921312

20:15

23-Ноя-16

Зарубежные фильмы 2016-2019 (Новинки зарубежного кино) ·· Сноуден / Snowden (Оливер Стоун) [2016, триллер, драма, биография, WEB-DLRip 1080р] Line Galfimbul 51305396414.78 GB 0 0 1479791953

08:19

22-Ноя-16

Зарубежные фильмы 2016-2019 (Новинки зарубежного кино) ·· Сноуден / Snowden (Оливер Стоун) [2016, триллер, драма, биография, WEB-DLRip 720р] Line Galfimbul 33864198703.15 GB 0 0 1479791949

08:19

22-Ноя-16

Зарубежные фильмы 2016-2019 (Новинки зарубежного кино) ·· Сноуден / Snowden (Оливер Стоун) [2016, триллер, драма, биография, WEB-DLRip] Line Galfimbul 18131224771.69 GB 0 0 1479791945

08:19

22-Ноя-16

Зарубежные фильмы 2016-2019 (Новинки зарубежного кино) ·· Сноуден / Snowden (Оливер Стоун) [2016, триллер, драма, биография, WEB-DL 1080р] Звук с CAMRip Galfimbul 53183305264.95 GB 0 0 1479719614

12:13

21-Ноя-16

Зарубежные фильмы 2016-2019 (Новинки зарубежного кино) ·· Сноуден / Snowden (Оливер Стоун) [2016, триллер, драма, биография, WEB-DLRip] Звук с CAMRip Galfimbul 22041088002.05 GB 0 0 1479181399

06:43

15-Ноя-16

Зарубежные фильмы 2016-2019 (Новинки зарубежного кино) ·· Сноуден / Snowden (Оливер Стоун) [2016, триллер, драма, биография, WEB-DLRip] Звук с CAMRip Galfimbul 14678691841.37 GB 0 0 1479181395

06:43

15-Ноя-16

Зарубежные фильмы 2016-2019 (Новинки зарубежного кино) ·· Сноуден / Snowden (Оливер Стоун) [2016, триллер, драма, биография, WEB-DLRip 720р] Звук с CAMRip Galfimbul 46040607424.29 GB 0 0 1479181390

06:43

15-Ноя-16

Зарубежные фильмы 2016-2019 (Новинки зарубежного кино) ·· Сноуден / Snowden (Оливер Стоун) [2016, триллер, драма, биография, WEB-DLRip 1080р] Звук с CAMRip Galfimbul 52339460974.87 GB 0 0 1479181383

06:43

15-Ноя-16

Еще никто не оставлял запись к записи скачать торрент Сноуден Snowden . Будь первым!

!Обратная связь