Скачать через торрент Сноуден Snowden Фильм бесплатно в хорошем качестве torrent

Скачивайте на UnionPeer.org фильмы через торрент без регистрации. Новинки кино в хорошем качестве через торрент. На UnionPeer.org можно скачать через торрент фильмы 2014 и 2015 годов. Самые новые фильмы.

Скачать торрент Сноуден Snowden бесплатно через .torrent фильм мультфильм сериал

Статистика раздачи
Размер:  18.02 GB   |    Зарегистрирован:  7 лет 1 месяц   |    .torrent скачан:  59 раз   |   
Раздают:  1  
 

Скачать Сноуден / Snowden (Оливер Стоун / Oliver Stone) [2016, Франция, Германия, США, триллер, драма, биография, BDRip 1080p] Dub (iTunes) + Sub Eng + Original Eng через torrent

 
 
Автор Сообщение

Galfimbul

avatar Galfimbul


Сноуден / Snowden

Страна: Франция, Германия, США
Студия: Endgame Entertainment, KrautPack Entertainment, Vendian Entertainment
Жанр: Триллер, драма, биография
Год выпуска: 2016
Продолжительность: 02:14:49

Перевод: Профессиональный (дублированный) iTunes
Cубтитры: английские
Оригинальная аудиодорожка: английский

Режиссер: Оливер Стоун / Oliver Stone

В ролях: Джозеф Гордон-Левитт, Шейлин Вудли, Мелисса Лео, Закари Куинто, Том Уилкинсон, Скотт Иствуд, Рис Иванс, Николас Кейдж, Тимоти Олифант, Джеймс Батлер

Описание: Он мечтал продолжить семейную традицию и посвятить свою жизнь служению Родине. Он безоговорочно верил в правительство США и поддерживал антитеррористическую программу. На заре его карьеры в спецслужбах никто, даже он сам, не мог бы предположить, что именно он, Эдвард Сноуден, совершит самое крупное разоблачение в мировой истории, обнародовав секретные документы, касающиеся тотальной слежки США за своими гражданами и гражданами других государств. Открыв миру глаза на правду, он навсегда закрыл для себя двери в счастливое будущее: отказался от карьеры, любимой девушки и Родины, которая назвала его предателем…

Сэмпл: https://cloud.mail.ru/public/3Q7c/D1UamLQW6

Тип релиза: BDRip 1080p
Контейнер: MKV

Видео: MPEG-4 AVC, 17,2 Мбит/с, 1920x800, 23,976 fps
Аудио: Rus, AC3, 384 kb/s (6 ch), 48 kHz
Аудио 2: Eng, DTS, 1509 kb/s (6 ch), 48 kHz
Формат субтитров: softsub (SRT)
Общее
Уникальный идентификатор : 204298482063975526225743122610228973049 (0x99B274D7F0B5037197A073FEF9E64DF9)
Полное имя : Snowden.2016.BDRip.1080p\Snowden.2016.BDRip.1080p.mkv
Формат : Matroska
Версия формата : Version 4 / Version 2
Размер файла : 18,0 Гбайт
Продолжительность : 2 ч. 14 м.
Общий поток : 19,1 Мбит/сек
Дата кодирования : UTC 2016-12-22 18:45:23
Программа кодирования : mkvmerge v9.4.0 ('Knurl') 64bit
Библиотека кодирования : libebml v1.3.4 + libmatroska v1.4.5

Видео
Идентификатор : 1
Формат : AVC
Формат/Информация : Advanced Video Codec
Профиль формата : [email protected]
Параметр CABAC формата : Да
Параметр ReFrames формата : 5 кадров
Идентификатор кодека : V_MPEG4/ISO/AVC
Продолжительность : 2 ч. 14 м.
Битрейт : 17,2 Мбит/сек
Ширина : 1920 пикселей
Высота : 800 пикселей
Соотношение сторон : 2,40:1
Режим частоты кадров : Постоянный
Частота кадров : 23,976 (24000/1001) кадра/сек
Цветовое пространство : YUV
Субдискретизация насыщенности : 4:2:0
Битовая глубина : 8 бит
Тип развёртки : Прогрессивная
Бит/(Пиксели*Кадры) : 0.468
Размер потока : 16,2 Гбайт (90%)
Библиотека кодирования : x264 core 148 r2744kMod b97ae06
Настройки программы : cabac=1 / ref=5 / deblock=1:-3:-3 / analyse=0x3:0x133 / me=umh / subme=11 / psy=1 / fade_compensate=0.00 / psy_rd=1.06:0.00 / mixed_ref=1 / me_range=64 / chroma_me=1 / trellis=2 / 8x8dct=1 / cqm=0 / deadzone=21,11 / fast_pskip=0 / chroma_qp_offset=-2 / threads=24 / lookahead_threads=4 / sliced_threads=0 / nr=0 / decimate=0 / interlaced=0 / bluray_compat=0 / constrained_intra=0 / bframes=8 / b_pyramid=2 / b_adapt=2 / b_bias=0 / direct=3 / weightb=1 / open_gop=0 / weightp=2 / keyint=240 / keyint_min=23 / scenecut=40 / intra_refresh=0 / rc_lookahead=200 / rc=crf / mbtree=0 / crf=17.6000 / qcomp=0.68 / qpmin=0 / qpmax=69 / qpstep=4 / vbv_maxrate=35000 / vbv_bufsize=40000 / crf_max=0.0 / nal_hrd=none / filler=0 / ip_ratio=1.25 / pb_ratio=1.20 / aq=3:0.70 / zones=775,905,crf=16.8/6111,6658,crf=16.8/43656,43676,crf=16.8/58995,59073,crf=16.8/59551,59597,crf=16.8/63238,64964,crf=16.0/65041,67051,crf=16.0/68254,71295,crf=16.0/72519,73750,crf=16.8/76812,76877,crf=16.8/81968,82099,crf=16.0/82219,82280,crf=16.8/82362,82440,crf=16.0/83900,84117,crf=16.8/90385,90518,crf=16.8/95639,95690,crf=16.8/109547,109656,crf=16.8/110090,110220,crf=16.8/112387,112583,crf=16.8/114027,114076,crf=16.8/122393,122409,crf=16.8/130207,130304,crf=16.8/130305,130409,crf=16.8/130503,130597,crf=16.0/133397,134536,crf=16.0/146655,147014,crf=16.0/157403,157865,crf=16.0/160679,160757,crf=16.0/163017,163623,crf=16.0/166657,167326,crf=16.0/172706,174571,crf=16.0/174572,174824,crf=16.8/175255,175608,crf=16.8/177479,177516,crf=16.8/177746,178256,crf=16.8/179822,180000,crf=16.8/181006,181162,crf=16.8/182913,183128,crf=16.0/183495,183531,crf=16.8/188506,193943,crf=21
Язык : English
Default : Да
Forced : Нет

Аудио #1
Идентификатор : 2
Формат : AC-3
Формат/Информация : Audio Coding 3
Расширение режима : CM (complete main)
Параметр Endianness формата : Big
Идентификатор кодека : A_AC3
Продолжительность : 2 ч. 14 м.
Вид битрейта : Постоянный
Битрейт : 384 Кбит/сек
Каналы : 6 каналов
Расположение каналов : Front: L C R, Side: L R, LFE
Частота : 48,0 КГц
Частота кадров : 31,250 кадров/сек (1536 spf)
Метод сжатия : С потерями
Размер потока : 370 Мбайт (2%)
Заголовок : iTunes
Язык : Russian
Default : Да
Forced : Нет

Аудио #2
Идентификатор : 3
Формат : DTS
Формат/Информация : Digital Theater Systems
Режим : 16
Параметр Endianness формата : Big
Идентификатор кодека : A_DTS
Продолжительность : 2 ч. 14 м.
Вид битрейта : Постоянный
Битрейт : 1509 Кбит/сек
Каналы : 6 каналов
Расположение каналов : Front: L C R, Side: L R, LFE
Частота : 48,0 КГц
Частота кадров : 93,750 кадра/сек (512 spf)
Битовая глубина : 24 бит
Метод сжатия : С потерями
Размер потока : 1,42 Гбайт (8%)
Язык : English
Default : Нет
Forced : Нет

Текст #1
Идентификатор : 4
Формат : UTF-8
Идентификатор кодека : S_TEXT/UTF8
Идентификатор кодека/Информация : UTF-8 Plain Text
Продолжительность : 2 ч. 9 м.
Битрейт : 78 бит/сек
Count of elements : 2032
Размер потока : 74,6 Кбайт (0%)
Язык : English
Default : Нет
Forced : Нет

Текст #2
Идентификатор : 5
Формат : UTF-8
Идентификатор кодека : S_TEXT/UTF8
Идентификатор кодека/Информация : UTF-8 Plain Text
Продолжительность : 2 ч. 9 м.
Битрейт : 84 бит/сек
Count of elements : 2176
Размер потока : 80,7 Кбайт (0%)
Заголовок : SDH
Язык : English
Default : Нет
Forced : Нет

Меню
00:00:00.000 : en:Chapter01
00:07:42.379 : en:Chapter02
00:15:49.991 : en:Chapter03
00:20:06.038 : en:Chapter04
00:26:32.007 : en:Chapter05
00:30:10.976 : en:Chapter06
00:35:30.211 : en:Chapter07
00:41:42.875 : en:Chapter08
00:51:45.769 : en:Chapter09
00:59:14.301 : en:Chapter10
01:04:44.547 : en:Chapter11
01:12:47.822 : en:Chapter12
01:18:07.474 : en:Chapter13
01:25:11.398 : en:Chapter14
01:30:30.717 : en:Chapter15
01:38:11.427 : en:Chapter16
01:50:06.141 : en:Chapter17
01:57:00.472 : en:Chapter18
02:03:22.353 : en:Chapter19
02:07:49.161 : en:Chapter20


Внимание! AdBlock блокирует показ скриншотов, все вопросы к разработчикам )))
Трекер:  [ 27-Дек-2016 19:00 ]

  

Скачать .torrent

Размер .torrent файла 90 KB


Размер: 18.02 GB
Хэш (hash) релиза: 07959ff8e19f3d3f826e918a4d2ba8818c13f01b
Подписка на обновления:

Торренты, похожие на Сноуден Snowden скачать торрент

Форум Название Автор Размер S L Добавлен
Зарубежные фильмы 2016-2019 (Новинки зарубежного кино) ·%· Сноуден / Snowden (2016) BDRip-AVC от OlLanDGroup | D, A | iTunes Galfimbul 36936465553.44 GB 0 0 1550761810

18:10

21-Фев-19

Зарубежные фильмы 2016-2019 (Новинки зарубежного кино) ·· Сноуден / Snowden (Оливер Стоун / Oliver Stone) [2016, Франция, Германия, США, триллер, драма, биография, BDRip-AVC] Dub + Original + Sub (rus, eng) Galfimbul 31356546062.92 GB 0 0 1483442373

14:19

3-Янв-17

Зарубежные фильмы 2016-2019 (Новинки зарубежного кино) ·· Сноуден / Snowden (Оливер Стоун / Oliver Stone) [2016, Франция, Германия, США, триллер, драма, биография, BDRip-AVC] Dub + Original + Sub (rus, eng) Galfimbul 22976985282.14 GB 0 0 1483442370

14:19

3-Янв-17

Зарубежные фильмы 2016-2019 (Новинки зарубежного кино) ·· Сноуден / Snowden (Оливер Стоун / Oliver Stone) [2016, Франция, Германия, США, триллер, драма, биография, BDRip-AVC] Dub Galfimbul 15722076371.46 GB 0 0 1483442367

14:19

3-Янв-17

Зарубежные фильмы 2016-2019 (Новинки зарубежного кино) ·· Сноуден / Snowden (Оливер Стоун / Oliver Stone) [2016, США, триллер, драма, биография, BDRip] Dub Galfimbul 15657349121.46 GB 0 0 1483442361

14:19

3-Янв-17

Зарубежные фильмы до 2016 ·· Сноуден / Snowden (Оливер Стоун / Oliver Stone) [2016, Франция, Германия, США, триллер, драма, биография, BDRip 720p] Dub (iTunes) + Sub Rus, Eng + Original Eng Galfimbul 76190331287.1 GB 0 0 1482857902

19:58

27-Дек-16

Зарубежные фильмы 2016-2019 (Новинки зарубежного кино) ·· Сноуден / Snowden (Оливер Стоун / Oliver Stone) [2016, США, Триллер, драма, биография, HDRip] Dub (iTunes) + Original (Eng) + Sub (rus,eng) Galfimbul 23190679752.16 GB 0 0 1482726562

07:29

26-Дек-16

Зарубежные фильмы 2016-2019 (Новинки зарубежного кино) ·· Сноуден / Snowden (Оливер Стоун / Oliver Stone) [2016, США, Триллер, драма, биография, BDRip 1080p] Line Galfimbul 1095237836810.2 GB 0 0 1481357618

11:13

10-Дек-16

Зарубежные фильмы 2016-2019 (Новинки зарубежного кино) ·· Сноуден / Snowden (Оливер Стоун / Oliver Stone) [2016, США, Триллер, драма, биография, WEB-DLRip] Dub (Line) + Original (Eng) Galfimbul 15717130241.46 GB 0 0 1479931280

23:01

23-Ноя-16

Зарубежные фильмы 2016-2019 (Новинки зарубежного кино) ·· Сноуден / Snowden (2016) WEB-DLRip от Scarabey | Line Galfimbul 15539630081.45 GB 0 0 1479921312

20:15

23-Ноя-16

Зарубежные фильмы 2016-2019 (Новинки зарубежного кино) ·· Сноуден / Snowden (Оливер Стоун) [2016, триллер, драма, биография, WEB-DLRip 1080р] Line Galfimbul 51305396414.78 GB 0 0 1479791953

08:19

22-Ноя-16

Зарубежные фильмы 2016-2019 (Новинки зарубежного кино) ·· Сноуден / Snowden (Оливер Стоун) [2016, триллер, драма, биография, WEB-DLRip 720р] Line Galfimbul 33864198703.15 GB 0 0 1479791949

08:19

22-Ноя-16

Зарубежные фильмы 2016-2019 (Новинки зарубежного кино) ·· Сноуден / Snowden (Оливер Стоун) [2016, триллер, драма, биография, WEB-DLRip] Line Galfimbul 18131224771.69 GB 0 0 1479791945

08:19

22-Ноя-16

Зарубежные фильмы 2016-2019 (Новинки зарубежного кино) ·· Сноуден / Snowden (Оливер Стоун) [2016, триллер, драма, биография, WEB-DL 1080р] Звук с CAMRip Galfimbul 53183305264.95 GB 0 0 1479719614

12:13

21-Ноя-16

Зарубежные фильмы 2016-2019 (Новинки зарубежного кино) ·· Сноуден / Snowden (Оливер Стоун) [2016, триллер, драма, биография, WEB-DLRip] Звук с CAMRip Galfimbul 22041088002.05 GB 0 0 1479181399

06:43

15-Ноя-16

Зарубежные фильмы 2016-2019 (Новинки зарубежного кино) ·· Сноуден / Snowden (Оливер Стоун) [2016, триллер, драма, биография, WEB-DLRip] Звук с CAMRip Galfimbul 14678691841.37 GB 0 0 1479181395

06:43

15-Ноя-16

Зарубежные фильмы 2016-2019 (Новинки зарубежного кино) ·· Сноуден / Snowden (Оливер Стоун) [2016, триллер, драма, биография, WEB-DLRip 720р] Звук с CAMRip Galfimbul 46040607424.29 GB 0 0 1479181390

06:43

15-Ноя-16

Зарубежные фильмы 2016-2019 (Новинки зарубежного кино) ·· Сноуден / Snowden (Оливер Стоун) [2016, триллер, драма, биография, WEB-DLRip 1080р] Звук с CAMRip Galfimbul 52339460974.87 GB 0 0 1479181383

06:43

15-Ноя-16

Еще никто не оставлял запись к записи скачать торрент Сноуден Snowden . Будь первым!

!Обратная связь