Скачать через торрент Восставший Risen Фильм бесплатно в хорошем качестве torrent

Скачивайте на UnionPeer.org фильмы через торрент без регистрации. Новинки кино в хорошем качестве через торрент. На UnionPeer.org можно скачать через торрент фильмы 2014 и 2015 годов. Самые новые фильмы.

Скачать торрент Восставший Risen бесплатно через .torrent фильм мультфильм сериал

Статистика раздачи
Размер:  10.95 GB   |    Зарегистрирован:  7 лет 1 месяц   |    .torrent скачан:  52 раза   |   
Раздают:  1  
 

Скачать Восставший / Risen (Кевин Рейнольдс/ Kevin Reynolds) [2016, США, боевик, драма, детектив, приключения, BDRip 1080p] MVO + MVO + Sub Rus, Eng + Original Eng через torrent

 
 
Автор Сообщение

Galfimbul

avatar Galfimbul


Восставший / Risen

Страна: США
Жанр: боевик, драма, детектив, приключения
Год выпуска: 2016
Продолжительность: 01:47:38
<div style="margin-left: 6em" class="post-ul">
<ol class="post-ul"></ol>
</div>
Перевод 1: Профессиональный (многоголосый закадровый) BD CEE
Перевод 2: Любительский (многоголосый закадровый) Paradox & Omskbird records
Cубтитры: русские, английскиe
Оригинальная аудиодорожка: английский
<div style="margin-left: 6em" class="post-ul">
<ol class="post-ul"></ol>
</div>
Режиссер: Кевин Рейнольдс/ Kevin Reynolds
<div style="margin-left: 6em" class="post-ul">
<ol class="post-ul"></ol>
</div>
В ролях: Джозеф Файнс, Том Фелтон, Питер Фёрт, Клифф Кёртис, Мария Ботто, Луис Кальехо, Антонио Хиль-Мартинес, Ричард Этуилл, Стюарт Скудамор, Энди Гэтергуд

Описание: 33 год н.э. Римскому трибуну в Иудее дано задание найти пропавшее тело распятого накануне еврея, который, судя по слухам, воскрес.
<div style="margin-left: 6em" class="post-ul">
<ol class="post-ul"></ol>
</div>
Тип релиза: BDRip 1080p
Контейнер: MKV
<div style="margin-left: 6em" class="post-ul">
<ol class="post-ul"></ol>
</div>
Видео: 1920x800 (2,40:1), 23.976 fps, AVC MPEG-4 (x264), [email protected] ~ 10500 Кбит/сек, 0.283 bit/pixel
<div style="margin-left: 6em" class="post-ul">
<ol class="post-ul"></ol>
</div>
Аудио 1: Russian: 48 kHz, AC3, 3/2 (L,C,R,l,r) + LFE ch, ~640.00 kbps avg | BD CEE
Аудио 2: English: 48 kHz/16-bit, DTS, 3/2 (L,C,R,l,r) + LFE ch, ~1509.00 kbps avg
Аудио 3: English: 48 kHz, AC3, 2/0 (L,R) ch, ~192.00 kbps avg | Commentary
Аудио 4: Russian: 48 kHz/16-bit, DTS, 3/2 (L,C,R,l,r) + LFE ch, ~1510.00 kbps avg | Paradox & Omskbird records
Общее
Уникальный идентификатор : 231496568576628610252349627681932444562 (0xAE289E0A4963A1BCB85A15626CEA0392)
Полное имя : D:\Risen.BDRip.1080p.mkv
Формат : Matroska
Версия формата : Version 2
Размер файла : 10,9 Гбайт
Продолжительность : 1 ч. 47 м.
Общий поток : 14,6 Мбит/сек
Дата кодирования : UTC 2016-12-26 17:23:02
Программа кодирования : mkvmerge v5.6.0 ('Kenya Kane') built on May 27 2012 16:44:04
Библиотека кодирования : libebml v1.2.3 + libmatroska v1.3.0
Обложка : Yes

Видео
Идентификатор : 1
Формат : AVC
Формат/Информация : Advanced Video Codec
Профиль формата : [email protected]
Параметр CABAC формата : Да
Параметр ReFrames формата : 5 кадров
Идентификатор кодека : V_MPEG4/ISO/AVC
Продолжительность : 1 ч. 47 м.
Битрейт : 10,4 Мбит/сек
Ширина : 1920 пикселей
Высота : 800 пикселей
Соотношение сторон : 2,40:1
Режим частоты кадров : Постоянный
Частота кадров : 23,976 кадра/сек
Цветовое пространство : YUV
Субдискретизация насыщенности : 4:2:0
Битовая глубина : 8 бит
Тип развёртки : Прогрессивная
Бит/(Пиксели*Кадры) : 0.283
Размер потока : 7,83 Гбайт (72%)
Библиотека кодирования : x264 core 148 r2665kMod a01e339
Настройки программы : cabac=1 / ref=5 / deblock=1:-3:-3 / analyse=0x3:0x133 / me=umh / subme=10 / psy=1 / fade_compensate=0.00 / psy_rd=1.00:0.00 / mixed_ref=1 / me_range=48 / chroma_me=1 / trellis=2 / 8x8dct=1 / cqm=0 / deadzone=21,11 / fast_pskip=1 / chroma_qp_offset=-2 / threads=12 / lookahead_threads=2 / sliced_threads=0 / nr=0 / decimate=1 / interlaced=0 / bluray_compat=0 / constrained_intra=0 / fgo=0 / bframes=8 / b_pyramid=2 / b_adapt=2 / b_bias=0 / direct=3 / weightb=1 / open_gop=0 / weightp=2 / keyint=250 / keyint_min=23 / scenecut=40 / intra_refresh=0 / rc=crf / mbtree=0 / crf=17.0000 / qcomp=0.60 / qpmin=0 / qpmax=69 / qpstep=4 / ip_ratio=1.30 / pb_ratio=1.20 / aq=3:0.75
Язык : English
Default : Да
Forced : Нет

Аудио #1
Идентификатор : 2
Формат : AC-3
Формат/Информация : Audio Coding 3
Расширение режима : CM (complete main)
Параметр Endianness формата : Big
Режим смешивания : Header stripping
Идентификатор кодека : A_AC3
Продолжительность : 1 ч. 47 м.
Вид битрейта : Постоянный
Битрейт : 640 Кбит/сек
Каналы : 6 каналов
Расположение каналов : Front: L C R, Side: L R, LFE
Частота : 48,0 КГц
Битовая глубина : 16 бит
Метод сжатия : С потерями
Размер потока : 493 Мбайт (4%)
Язык : Russian
Default : Да
Forced : Нет

Аудио #2
Идентификатор : 3
Формат : DTS
Формат/Информация : Digital Theater Systems
Режим : 16
Параметр Endianness формата : Big
Режим смешивания : Header stripping
Идентификатор кодека : A_DTS
Продолжительность : 1 ч. 47 м.
Вид битрейта : Постоянный
Битрейт : 1509 Кбит/сек
Каналы : 6 каналов
Расположение каналов : Front: L C R, Side: L R, LFE
Частота : 48,0 КГц
Битовая глубина : 16 бит
Метод сжатия : С потерями
Размер потока : 1,13 Гбайт (10%)
Язык : English
Default : Нет
Forced : Нет

Аудио #3
Идентификатор : 4
Формат : AC-3
Формат/Информация : Audio Coding 3
Расширение режима : CM (complete main)
Параметр Endianness формата : Big
Режим смешивания : Header stripping
Идентификатор кодека : A_AC3
Продолжительность : 1 ч. 47 м.
Вид битрейта : Постоянный
Битрейт : 192 Кбит/сек
Каналы : 2 канала
Расположение каналов : Front: L R
Частота : 48,0 КГц
Битовая глубина : 16 бит
Метод сжатия : С потерями
Размер потока : 148 Мбайт (1%)
Заголовок : AC3 2.0 @ 192 kbps - Commentary Producer Patrick Aiello and Writer Paul Aiello
Язык : English
Default : Нет
Forced : Нет

Аудио #4
Идентификатор : 9
Формат : DTS
Формат/Информация : Digital Theater Systems
Режим : 16
Параметр Endianness формата : Big
Режим смешивания : Header stripping
Идентификатор кодека : A_DTS
Продолжительность : 1 ч. 47 м.
Вид битрейта : Постоянный
Битрейт : 1510 Кбит/сек
Каналы : 6 каналов
Расположение каналов : Front: L C R, Side: L R, LFE
Частота : 48,0 КГц
Битовая глубина : 24 бит
Метод сжатия : С потерями
Размер потока : 1,14 Гбайт (10%)
Язык : Russian
Default : Нет
Forced : Нет

Текст #1
Идентификатор : 5
Формат : UTF-8
Идентификатор кодека : S_TEXT/UTF8
Идентификатор кодека/Информация : UTF-8 Plain Text
Заголовок : iTunes
Язык : Russian
Default : Нет
Forced : Нет

Текст #2
Идентификатор : 6
Формат : UTF-8
Идентификатор кодека : S_TEXT/UTF8
Идентификатор кодека/Информация : UTF-8 Plain Text
Заголовок : iTunes
Язык : English
Default : Нет
Forced : Нет

Текст #3
Идентификатор : 7
Формат : UTF-8
Идентификатор кодека : S_TEXT/UTF8
Идентификатор кодека/Информация : UTF-8 Plain Text
Язык : English
Default : Нет
Forced : Нет

Текст #4
Идентификатор : 8
Формат : UTF-8
Идентификатор кодека : S_TEXT/UTF8
Идентификатор кодека/Информация : UTF-8 Plain Text
Заголовок : Commentary
Язык : English
Default : Нет
Forced : Нет

Меню
00:00:00.000 : en:00:00:00.000
00:06:50.243 : en:00:06:50.243
00:14:18.733 : en:00:14:18.733
00:21:48.182 : en:00:21:48.182
00:27:35.195 : en:00:27:35.195
00:33:21.082 : en:00:33:21.082
00:40:03.985 : en:00:40:03.985
00:46:19.193 : en:00:46:19.193
00:54:06.243 : en:00:54:06.243
01:00:06.478 : en:01:00:06.478
01:07:53.027 : en:01:07:53.027
01:13:54.847 : en:01:13:54.847
01:19:46.657 : en:01:19:46.657
01:25:42.387 : en:01:25:42.387
01:33:16.132 : en:01:33:16.132
01:38:41.833 : en:01:38:41.833


Внимание! AdBlock блокирует показ скриншотов, все вопросы к разработчикам )))
Трекер:  [ 03-Янв-2017 13:30 ]

  

Скачать .torrent

Размер .torrent файла 55 KB


Размер: 10.95 GB
Хэш (hash) релиза: 5ba4979a190badad913d99a4f007980969012d29
Подписка на обновления:

Торренты, похожие на Восставший Risen скачать торрент

Форум Название Автор Размер S L Добавлен
Зарубежные фильмы до 2016 ·· Воскресение Христа / Восставший / Risen (Кевин Рейнольдс / Kevin Reynolds) [2016, США, Боевик, драма, детектив, приключения, DVD5 (сжатый)] исх. R2, MVO + Sub Rus + Original Eng Galfimbul 46879232004.37 GB 0 0 1520181372

19:36

4-Мар-18

Зарубежные фильмы до 2016 ·· Воскресение Христа / Восставший / Risen (Кевин Рейнольдс / Kevin Reynolds) [2016, США, Драма, детектив, приключения, исторический, DVD9] MVO + Sub Rus + Original Eng Galfimbul 82239706347.66 GB 0 0 1519655808

17:36

26-Фев-18

Зарубежные фильмы до 2016 ·· Восставший / Risen (Кевин Рейнольдс / Kevin Reynolds) [2016, США, боевик, драма, детектив, приключения, BDRip 720p] MVO + Ukr Dub (iTunes) + Sub Rus, Eng + Original Eng Galfimbul 71727756406.68 GB 0 0 1483809771

20:22

7-Янв-17

Зарубежные фильмы 2016-2019 (Новинки зарубежного кино) ·· Восставший / Risen (Кевин Рейнольдс / Kevin Reynolds) [2016, США, боевик, драма, приключения, история, BDRip] MVO (CEE) + Original Eng + subs (Rus, Eng) Galfimbul 23443853702.18 GB 0 0 1483442267

14:17

3-Янв-17

Зарубежные фильмы до 2016 ·· Восставший / Risen (Кевин Рейнольдс / Kevin Reynolds) [2016, США, боевик, драма, детектив, приключения, Blu-ray disc 1080p] [CEE] MVO + Sub Rus, Eng + Original Eng Galfimbul 3435963355932 GB 0 0 1482856337

19:32

27-Дек-16

Зарубежные фильмы до 2016 ·· Восставший / Risen (Кевин Рейнольдс/ Kevin Reynolds) [2016, США, боевик, драма, детектив, приключения, BDRip 720p] MVO (Paradox & Omskbird records) + Sub Rus, Eng + Original Eng Galfimbul 42642950003.97 GB 0 0 1464174647

14:10

25-Май-16

Зарубежные фильмы 2016-2019 (Новинки зарубежного кино) ·· Восставший / Risen (Кевин Рейнольдс) [2016, боевик, драма, детектив, приключения, BDRip] Galfimbul 13908118001.3 GB 0 0 1463156045

19:14

13-Май-16

Зарубежные фильмы 2016-2019 (Новинки зарубежного кино) ·· Восставший / Risen (Кевин Рейнольдс) [2016, боевик, драма, детектив, приключения, BDRip 1080p] Galfimbul 1271160022211.84 GB 0 0 1463156040

19:14

13-Май-16

Зарубежные фильмы 2016-2019 (Новинки зарубежного кино) ·· Восставший / Risen (Кевин Рейнольдс) [2016, боевик, драма, детектив, приключения, BDRip 720p] Galfimbul 51160096874.76 GB 0 0 1462522252

11:10

6-Май-16

Зарубежные фильмы 2016-2019 (Новинки зарубежного кино) ·· Восставший / Risen (Кевин Рейнольдс) [2016, боевик, драма, детектив, приключения, HDRip] Galfimbul 15650488321.46 GB 0 0 1462522246

11:10

6-Май-16

Зарубежные фильмы 2016-2019 (Новинки зарубежного кино) ·· Восставший / Воскресение Христа / Risen (Кевин Рейнольдс / Kevin Reynolds) [2016, США, боевик, драма, детектив, приключения, BDRip] MVO Galfimbul 783468544747 MB 0 0 1483442303

14:18

3-Янв-17

Зарубежные фильмы 2016-2019 (Новинки зарубежного кино) ·· Восставший / Воскресение Христа / Risen / The Resurrection of Jesus Christ (Кевин Рейнольдс / Kevin Reynolds) [2016, США, драма, приключения, BDRip] Лицензия Galfimbul 22058667222.05 GB 0 0 1482842546

15:42

27-Дек-16

Зарубежные фильмы до 2016 ·· Восставший / Воскресение Христа / Risen / The Resurrection of Jesus Christ (Кевин Рейнольдс / Kevin Reynolds) [2016, США, драма, приключения, HDTV 1080i] [Open Matte] MVO (Пифагор) Galfimbul 65144722186.07 GB 0 0 1479806514

12:21

22-Ноя-16

Зарубежные фильмы 2016-2019 (Новинки зарубежного кино) ·· Восставший / Воскресение Христа / Risen (Кевин Рейнольдс / Kevin Reynolds) [2016, США, боевик, драма, детектив, BDRip-AVC] MVO + Sub (rus, eng) Galfimbul 15139748351.41 GB 0 0 1468842738

14:52

18-Июл-16

Зарубежные фильмы до 2016 ·· Восставший / Воскресение Христа / Risen (Кевин Рейнольдс / Kevin Reynolds) [2016, США, боевик, драма, детектив, приключения, BDRip 1080p] MVO (Paradox & Omskbird records) + Sub Rus, Eng + Original Eng Galfimbul 1271160022211.84 GB 0 0 1465221540

16:59

6-Июн-16

Зарубежные фильмы 2016-2019 (Новинки зарубежного кино) ·· Восставший / Воскресение Христа / Risen (Кевин Рейнольдс / Kevin Reynolds) [2016, США, боевик, драма, детектив, BDRip-AVC] MVO + Sub (rus, eng) Galfimbul 15656845331.46 GB 0 0 1464155944

08:59

25-Май-16

Еще никто не оставлял запись к записи скачать торрент Восставший Risen . Будь первым!

!Обратная связь