Скачать через торрент Восставший Risen Фильм бесплатно в хорошем качестве torrent

Скачивайте на UnionPeer.org фильмы через торрент без регистрации. Новинки кино в хорошем качестве через торрент. На UnionPeer.org можно скачать через торрент фильмы 2014 и 2015 годов. Самые новые фильмы.

Скачать торрент Восставший Risen бесплатно через .torrent фильм мультфильм сериал

Статистика раздачи
Размер:  6.68 GB   |    Зарегистрирован:  7 лет 1 месяц   |    .torrent скачан:  34 раза   |   
Раздают:  1  
 

Скачать Восставший / Risen (Кевин Рейнольдс / Kevin Reynolds) [2016, США, боевик, драма, детектив, приключения, BDRip 720p] MVO + Ukr Dub (iTunes) + Sub Rus, Eng + Original Eng через torrent

 
 
Автор Сообщение

Galfimbul

avatar Galfimbul


Восставший / Risen

Страна: США
Студия: Liddell Entertainment, Affirm Films, Columbia Pictures
Жанр: боевик, драма, детектив, приключения
Год выпуска: 2016
Продолжительность: 01:47:38

Перевод: Профессиональный (многоголосый закадровый)
Cубтитры: русские, английские
Оригинальная аудио дорожка: английская

Режиссер: Кевин Рейнольдс / Kevin Reynolds

В ролях: Джозеф Файнс, Том Фелтон, Питер Фёрт, Клифф Кёртис, Мария Ботто, Луис Кальехо, Антонио Хиль-Мартинес, Ричард Этуилл, Стюарт Скудамор, Энди Гэтергуд

Описание: 33 год н. э. Римскому трибуну в Иудее дано задание найти пропавшее тело распятого накануне еврея, который, судя по слухам, воскрес.

Доп. информация: Сохранены оригинальные главы как на Blu-ray.
Торрент обновил - заменил Аудио 1 на дорожку с Blu-ray.

Сэмпл: http://sendfile.su/1296937

Тип релиза: BDRip 720p
Контейнер: MKV
Видео кодек: H.264
Аудио кодек: DTS, AC-3
Видео: MPEG4/AVC, 1280x534p, 2.40:1, 23.976 (24000/1001) FPS, 6367 kb/s
Аудио 1: RUS / MVO, AC-3, 48.0 kHz, 5.1, 640 kb/s | многоголосый закадровый
Аудио 2: UA / MVO, AC-3, 48.0 kHz, 2.0, 192 kb/s | дубляж, iTunes Russia
Аудио 3: ENG / нет, DTS, 48.0 kHz, 5.1, 1509 kb/s | оригинал
Формат субтитров: softsub (SRT)
Релиз:
x264 [info]: profile High, level 4.1
x264 [info]: frame I:1143 Avg QP:13.37 size:139391
x264 [info]: frame P:31739 Avg QP:15.06 size: 62332
x264 [info]: frame B:121962 Avg QP:16.46 size: 25768

Формат : Matroska
Версия формата : Version 2
Размер файла : 6,68 Гбайт
Продолжительность : 1 ч. 47 м.
Общий поток : 8885 Кбит/сек
Название фильма : Risen - Rip from Rutracker <<LION1234>>
Дата кодирования : UTC 2017-01-07 07:39:57
Программа кодирования : mkvmerge v7.6.0 ('Garden of Dreams') 32bit built on Feb 11 2015 00:18:47
Библиотека кодирования : libebml v1.3.1 + libmatroska v1.4.2

Видео
Идентификатор : 1
Формат : AVC
Формат/Информация : Advanced Video Codec
Профиль формата : [email protected]
Параметр CABAC формата : Да
Параметр ReFrames формата : 12 кадров
Идентификатор кодека : V_MPEG4/ISO/AVC
Продолжительность : 1 ч. 47 м.
Битрейт : 6367 Кбит/сек
Ширина : 1280 пикселей
Высота : 534 пикселя
Соотношение сторон : 2,40:1
Режим частоты кадров : Постоянный
Частота кадров : 23,976 (24000/1001) кадра/сек
Цветовое пространство : YUV
Субдискретизация насыщенности : 4:2:0
Битовая глубина : 8 бит
Тип развёртки : Прогрессивная
Бит/(Пиксели*Кадры) : 0.389
Размер потока : 4,79 Гбайт (72%)
Заголовок : Risen - Rip from Rutracker <<LION1234>>
Библиотека кодирования : x264 core 148 r2744 b97ae06
Настройки программы : cabac=1 / ref=12 / deblock=1:-3:-3 / analyse=0x3:0x113 / me=umh / subme=10 / psy=1 / psy_rd=1.30:0.05 / mixed_ref=1 / me_range=24 / chroma_me=1 / trellis=2 / 8x8dct=1 / cqm=0 / deadzone=21,11 / fast_pskip=1 / chroma_qp_offset=-3 / threads=6 / lookahead_threads=1 / sliced_threads=0 / nr=0 / decimate=0 / interlaced=0 / bluray_compat=0 / constrained_intra=0 / bframes=16 / b_pyramid=2 / b_adapt=2 / b_bias=0 / direct=3 / weightb=1 / open_gop=0 / weightp=2 / keyint=250 / keyint_min=23 / scenecut=40 / intra_refresh=0 / rc_lookahead=40 / rc=crf / mbtree=0 / crf=15.0 / qcomp=0.65 / qpmin=0 / qpmax=69 / qpstep=4 / vbv_maxrate=62500 / vbv_bufsize=78125 / crf_max=0.0 / nal_hrd=none / filler=0 / ip_ratio=1.30 / pb_ratio=1.20 / aq=2:0.70
Default : Да
Forced : Нет
Statistics Tags Issue : mkvmerge v9.6.0 ('Slave To Your Mind') 32bit 2017-01-06 09:19:09 / mkvmerge v7.6.0 ('Garden of Dreams') 32bit built on Feb 11 2015 00:18:47 2017-01-07 07:39:57
FromStats_BitRate : 6540961
FromStats_Duration : 01:47:38.285000000
FromStats_FrameCount : 154844
FromStats_StreamSize : 5280423963

Аудио #1
Идентификатор : 2
Формат : AC-3
Формат/Информация : Audio Coding 3
Расширение режима : CM (complete main)
Параметр Endianness формата : Big
Идентификатор кодека : A_AC3
Продолжительность : 1 ч. 47 м.
Вид битрейта : Постоянный
Битрейт : 640 Кбит/сек
Каналы : 6 каналов
Расположение каналов : Front: L C R, Side: L R, LFE
Частота : 48,0 КГц
Частота кадров : 31,250 кадров/сек (1536 spf)
Битовая глубина : 16 бит
Метод сжатия : С потерями
Размер потока : 493 Мбайт (7%)
Заголовок : закадровый
Язык : Russian
Default : Да
Forced : Нет

Аудио #2
Идентификатор : 3
Формат : AC-3
Формат/Информация : Audio Coding 3
Расширение режима : CM (complete main)
Параметр Endianness формата : Big
Идентификатор кодека : A_AC3
Продолжительность : 1 ч. 47 м.
Вид битрейта : Постоянный
Битрейт : 192 Кбит/сек
Каналы : 2 канала
Расположение каналов : Front: L R
Частота : 48,0 КГц
Частота кадров : 31,250 кадров/сек (1536 spf)
Битовая глубина : 16 бит
Метод сжатия : С потерями
Размер потока : 148 Мбайт (2%)
Заголовок : дубляж
Язык : Ukrainian
Default : Нет
Forced : Нет

Аудио #3
Идентификатор : 4
Формат : DTS
Формат/Информация : Digital Theater Systems
Режим : 16
Параметр Endianness формата : Big
Идентификатор кодека : A_DTS
Продолжительность : 1 ч. 47 м.
Вид битрейта : Постоянный
Битрейт : 1509 Кбит/сек
Каналы : 6 каналов
Расположение каналов : Front: L C R, Side: L R, LFE
Частота : 48,0 КГц
Частота кадров : 93,750 кадра/сек (512 spf)
Битовая глубина : 24 бит
Метод сжатия : С потерями
Размер потока : 1,13 Гбайт (17%)
Заголовок : оригинал
Язык : English
Default : Нет
Forced : Нет

Текст #1
Идентификатор : 5
Формат : UTF-8
Идентификатор кодека : S_TEXT/UTF8
Идентификатор кодека/Информация : UTF-8 Plain Text
Заголовок : русские
Язык : Russian
Default : Нет
Forced : Нет

Текст #2
Идентификатор : 6
Формат : UTF-8
Идентификатор кодека : S_TEXT/UTF8
Идентификатор кодека/Информация : UTF-8 Plain Text
Заголовок : английские
Язык : English
Default : Нет
Forced : Нет

Меню
00:00:00.000 : en:00:00:00.000
00:06:50.242 : en:00:06:50.242
00:14:18.731 : en:00:14:18.731
00:21:48.181 : en:00:21:48.181
00:27:35.194 : en:00:27:35.194
00:33:21.082 : en:00:33:21.082
00:40:03.983 : en:00:40:03.983
00:46:19.193 : en:00:46:19.193
00:54:06.242 : en:00:54:06.242
01:00:06.476 : en:01:00:06.476
01:07:53.027 : en:01:07:53.027
01:13:54.846 : en:01:13:54.846
01:19:46.655 : en:01:19:46.655
01:25:42.386 : en:01:25:42.386
01:33:16.131 : en:01:33:16.131
01:38:41.832 : en:01:38:41.832


Внимание! AdBlock блокирует показ скриншотов, все вопросы к разработчикам )))
Трекер:  [ 07-Янв-2017 19:30 ]

  

Скачать .torrent

Размер .torrent файла 17 KB


Размер: 6.68 GB
Хэш (hash) релиза: 491f44e1870572f5f7c37b3db4ac5c4aa98995a3
Подписка на обновления:

Торренты, похожие на Восставший Risen скачать торрент

Форум Название Автор Размер S L Добавлен
Зарубежные фильмы до 2016 ·· Воскресение Христа / Восставший / Risen (Кевин Рейнольдс / Kevin Reynolds) [2016, США, Боевик, драма, детектив, приключения, DVD5 (сжатый)] исх. R2, MVO + Sub Rus + Original Eng Galfimbul 46879232004.37 GB 0 0 1520181372

19:36

4-Мар-18

Зарубежные фильмы до 2016 ·· Воскресение Христа / Восставший / Risen (Кевин Рейнольдс / Kevin Reynolds) [2016, США, Драма, детектив, приключения, исторический, DVD9] MVO + Sub Rus + Original Eng Galfimbul 82239706347.66 GB 0 0 1519655808

17:36

26-Фев-18

Зарубежные фильмы до 2016 ·· Восставший / Risen (Кевин Рейнольдс/ Kevin Reynolds) [2016, США, боевик, драма, детектив, приключения, BDRip 1080p] MVO + MVO + Sub Rus, Eng + Original Eng Galfimbul 1175394773210.95 GB 0 0 1483442543

14:22

3-Янв-17

Зарубежные фильмы 2016-2019 (Новинки зарубежного кино) ·· Восставший / Risen (Кевин Рейнольдс / Kevin Reynolds) [2016, США, боевик, драма, приключения, история, BDRip] MVO (CEE) + Original Eng + subs (Rus, Eng) Galfimbul 23443853702.18 GB 0 0 1483442267

14:17

3-Янв-17

Зарубежные фильмы до 2016 ·· Восставший / Risen (Кевин Рейнольдс / Kevin Reynolds) [2016, США, боевик, драма, детектив, приключения, Blu-ray disc 1080p] [CEE] MVO + Sub Rus, Eng + Original Eng Galfimbul 3435963355932 GB 0 0 1482856337

19:32

27-Дек-16

Зарубежные фильмы до 2016 ·· Восставший / Risen (Кевин Рейнольдс/ Kevin Reynolds) [2016, США, боевик, драма, детектив, приключения, BDRip 720p] MVO (Paradox & Omskbird records) + Sub Rus, Eng + Original Eng Galfimbul 42642950003.97 GB 0 0 1464174647

14:10

25-Май-16

Зарубежные фильмы 2016-2019 (Новинки зарубежного кино) ·· Восставший / Risen (Кевин Рейнольдс) [2016, боевик, драма, детектив, приключения, BDRip] Galfimbul 13908118001.3 GB 0 0 1463156045

19:14

13-Май-16

Зарубежные фильмы 2016-2019 (Новинки зарубежного кино) ·· Восставший / Risen (Кевин Рейнольдс) [2016, боевик, драма, детектив, приключения, BDRip 1080p] Galfimbul 1271160022211.84 GB 0 0 1463156040

19:14

13-Май-16

Зарубежные фильмы 2016-2019 (Новинки зарубежного кино) ·· Восставший / Risen (Кевин Рейнольдс) [2016, боевик, драма, детектив, приключения, BDRip 720p] Galfimbul 51160096874.76 GB 0 0 1462522252

11:10

6-Май-16

Зарубежные фильмы 2016-2019 (Новинки зарубежного кино) ·· Восставший / Risen (Кевин Рейнольдс) [2016, боевик, драма, детектив, приключения, HDRip] Galfimbul 15650488321.46 GB 0 0 1462522246

11:10

6-Май-16

Зарубежные фильмы 2016-2019 (Новинки зарубежного кино) ·· Восставший / Воскресение Христа / Risen (Кевин Рейнольдс / Kevin Reynolds) [2016, США, боевик, драма, детектив, приключения, BDRip] MVO Galfimbul 783468544747 MB 0 0 1483442303

14:18

3-Янв-17

Зарубежные фильмы 2016-2019 (Новинки зарубежного кино) ·· Восставший / Воскресение Христа / Risen / The Resurrection of Jesus Christ (Кевин Рейнольдс / Kevin Reynolds) [2016, США, драма, приключения, BDRip] Лицензия Galfimbul 22058667222.05 GB 0 0 1482842546

15:42

27-Дек-16

Зарубежные фильмы до 2016 ·· Восставший / Воскресение Христа / Risen / The Resurrection of Jesus Christ (Кевин Рейнольдс / Kevin Reynolds) [2016, США, драма, приключения, HDTV 1080i] [Open Matte] MVO (Пифагор) Galfimbul 65144722186.07 GB 0 0 1479806514

12:21

22-Ноя-16

Зарубежные фильмы 2016-2019 (Новинки зарубежного кино) ·· Восставший / Воскресение Христа / Risen (Кевин Рейнольдс / Kevin Reynolds) [2016, США, боевик, драма, детектив, BDRip-AVC] MVO + Sub (rus, eng) Galfimbul 15139748351.41 GB 0 0 1468842738

14:52

18-Июл-16

Зарубежные фильмы до 2016 ·· Восставший / Воскресение Христа / Risen (Кевин Рейнольдс / Kevin Reynolds) [2016, США, боевик, драма, детектив, приключения, BDRip 1080p] MVO (Paradox & Omskbird records) + Sub Rus, Eng + Original Eng Galfimbul 1271160022211.84 GB 0 0 1465221540

16:59

6-Июн-16

Зарубежные фильмы 2016-2019 (Новинки зарубежного кино) ·· Восставший / Воскресение Христа / Risen (Кевин Рейнольдс / Kevin Reynolds) [2016, США, боевик, драма, детектив, BDRip-AVC] MVO + Sub (rus, eng) Galfimbul 15656845331.46 GB 0 0 1464155944

08:59

25-Май-16

Еще никто не оставлял запись к записи скачать торрент Восставший Risen . Будь первым!

!Обратная связь