Скачать через торрент Уличный кот по кличке Боб A Street Cat Named Bob Фильм бесплатно в хорошем качестве torrent

Скачивайте на UnionPeer.org фильмы через торрент без регистрации. Новинки кино в хорошем качестве через торрент. На UnionPeer.org можно скачать через торрент фильмы 2014 и 2015 годов. Самые новые фильмы.

Скачать торрент Уличный кот по кличке Боб A Street Cat Named Bob бесплатно через .torrent фильм мультфильм сериал

Статистика раздачи
Размер:  10.92 GB   |    Зарегистрирован:  6 лет 11 месяцев   |    .torrent скачан:  158 раз   |   
Раздают:  1  
 

Скачать Уличный кот по кличке Боб / A Street Cat Named Bob (Роджер Споттисвуд) [2016, драма, комедия, семейный, биография, BDRip 1080p] Лицензия через torrent

 
 
Автор Сообщение

Galfimbul

avatar Galfimbul


Уличный кот по кличке Боб /A Street Cat Named Bob

Год выхода: 2016
Жанр: драма, комедия, семейный, биография
Режиссёр: Роджер Споттисвуд
В ролях: Люк Тредэвэй, Рута Гедминтас, Джоанн Фроггатт, Энтони Хэд, Даррен Эванс, Тони Джайавардена, Адам Ричез, Льюэлла Гидеон, Лоррейн Эшборн

О фильме:
Рассказ о том, как Джеймс Боуэн, восстанавливающийся от наркотической зависимости уличный музыкант, встретил рыжего уличного кота и его жизнь изменилась в лучшую сторону.



Страна: Великобритания
Производство: Iris Productions, Prescience, Shooting Films
Продолжительность: 01:42:48
Перевод: Профессиональный (многоголосый, закадровый) [BD EUR]

Файл
Кодек: AVC
Качество: BDRip 1080p
Видео: 1920x804 (2.40:1), 23.976 fps, MPEG-4 AVC ~12.2 Mb/s, 0.329 bit/pixel
Аудио / RUS: DTS, 48 kHz, 6 ch, ~1509 kbps avg
Аудио / ENG: DTS, 48 kHz, 6 ch, ~1509 kbps avg
Субтитры: Русские, английские
/A.Street.Cat.Named.Bob.2016.x264.BDRip.1080p.mkv
Format : Matroska
Format version : Version 4 / Version 2
File size : 10.9 GiB
Duration : 1 h 42 min
Overall bit rate : 15.2 Mb/s
Movie name : A.Street.Cat.Named.Bob.2016.x264.BDRip.1080p
Encoded date : UTC 2017-02-27 13:48:20
Writing application : mkvmerge v7.9.0 ('Birds') 32bit
Writing library : libebml v1.3.1 + libmatroska v1.4.2

Video
ID : 1
Format : AVC
Format/Info : Advanced Video Codec
Format profile : [email protected]
Format settings, CABAC : Yes
Format settings, ReFrames : 5 frames
Codec ID : V_MPEG4/ISO/AVC
Duration : 1 h 42 min
Bit rate : 12.2 Mb/s
Width : 1 920 pixels
Height : 804 pixels
Display aspect ratio : 2.40:1
Frame rate mode : Constant
Frame rate : 23.976 (24000/1001) FPS
Color space : YUV
Chroma subsampling : 4:2:0
Bit depth : 8 bits
Scan type : Progressive
Bits/(Pixel*Frame) : 0.329
Stream size : 8.75 GiB (80%)
Title : A.Street.Cat.Named.Bob.2016.x264.BDRip.1080p.BLUEBIRD
Writing library : x264 core 148 r2744 b97ae06
Encoding settings : cabac=1 / ref=5 / deblock=1:-3:-3 / analyse=0x3:0x133 / me=umh / subme=11 / psy=1 / psy_rd=1.00:0.10 / mixed_ref=1 / me_range=32 / chroma_me=1 / trellis=2 / 8x8dct=1 / cqm=0 / deadzone=21,11 / fast_pskip=0 / chroma_qp_offset=-3 / threads=12 / lookahead_threads=1 / sliced_threads=0 / nr=0 / decimate=0 / interlaced=0 / bluray_compat=0 / constrained_intra=0 / bframes=9 / b_pyramid=2 / b_adapt=1 / b_bias=0 / direct=3 / weightb=1 / open_gop=0 / weightp=2 / keyint=240 / keyint_min=23 / scenecut=40 / intra_refresh=0 / rc_lookahead=60 / rc=crf / mbtree=0 / crf=18.0 / qcomp=0.75 / qpmin=0 / qpmax=69 / qpstep=4 / vbv_maxrate=62500 / vbv_bufsize=78125 / crf_max=0.0 / nal_hrd=none / filler=0 / ip_ratio=1.40 / pb_ratio=1.30 / aq=1:0.80
Language : English
Default : Yes
Forced : No

Audio #1
ID : 2
Format : DTS
Format/Info : Digital Theater Systems
Mode : 16
Format settings, Endianness : Big
Codec ID : A_DTS
Duration : 1 h 42 min
Bit rate mode : Constant
Bit rate : 1 509 kb/s
Channel(s) : 6 channels
Channel positions : Front: L C R, Side: L R, LFE
Sampling rate : 48.0 kHz
Frame rate : 93.750 FPS (512 spf)
Bit depth : 24 bits
Compression mode : Lossy
Stream size : 1.08 GiB (10%)
Title : Профессиональный многоголосый (BD EUR)
Language : Russian
Default : Yes
Forced : No

Audio #2
ID : 3
Format : DTS
Format/Info : Digital Theater Systems
Mode : 16
Format settings, Endianness : Big
Codec ID : A_DTS
Duration : 1 h 42 min
Bit rate mode : Constant
Bit rate : 1 509 kb/s
Channel(s) : 6 channels
Channel positions : Front: L C R, Side: L R, LFE
Sampling rate : 48.0 kHz
Frame rate : 93.750 FPS (512 spf)
Bit depth : 24 bits
Compression mode : Lossy
Stream size : 1.08 GiB (10%)
Language : English
Default : No
Forced : No

Text #1
ID : 4
Format : UTF-8
Codec ID : S_TEXT/UTF8
Codec ID/Info : UTF-8 Plain Text
Duration : 1 h 37 min
Bit rate : 1 b/s
Count of elements : 18
Stream size : 810 Bytes (0%)
Title : forced
Language : Russian
Default : No
Forced : No

Text #2
ID : 5
Format : UTF-8
Codec ID : S_TEXT/UTF8
Codec ID/Info : UTF-8 Plain Text
Duration : 1 h 37 min
Bit rate : 92 b/s
Count of elements : 1420
Stream size : 66.2 KiB (0%)
Title : full
Language : Russian
Default : No
Forced : No

Text #3
ID : 6
Format : UTF-8
Codec ID : S_TEXT/UTF8
Codec ID/Info : UTF-8 Plain Text
Duration : 1 h 36 min
Bit rate : 57 b/s
Count of elements : 1393
Stream size : 40.8 KiB (0%)
Title : full
Language : English
Default : No
Forced : No

Text #4
ID : 7
Format : UTF-8
Codec ID : S_TEXT/UTF8
Codec ID/Info : UTF-8 Plain Text
Duration : 1 h 41 min
Bit rate : 70 b/s
Count of elements : 1803
Stream size : 52.4 KiB (0%)
Title : SDH
Language : English
Default : No
Forced : No

Menu
00:00:00.000 : en:00:00:00.000
00:06:55.165 : en:00:06:55.165
00:11:37.071 : en:00:11:37.071
00:18:52.882 : en:00:18:52.882
00:28:30.250 : en:00:28:30.250
00:31:36.895 : en:00:31:36.895
00:37:52.061 : en:00:37:52.061
00:45:03.242 : en:00:45:03.242
00:49:39.810 : en:00:49:39.810
00:54:35.063 : en:00:54:35.063
01:03:16.001 : en:01:03:16.001
01:07:13.821 : en:01:07:13.821
01:11:18.774 : en:01:11:18.774
01:19:17.503 : en:01:19:17.503
01:27:15.897 : en:01:27:15.897
01:34:30.665 : en:01:34:30.665


Внимание! AdBlock блокирует показ скриншотов, все вопросы к разработчикам )))
Трекер:  [ 27-Фев-2017 20:00 ]

  

Скачать .torrent

Размер .torrent файла 109 KB


Размер: 10.92 GB
Хэш (hash) релиза: 4089a6399f9f0e3076b729905843f0f3cd7fceb6
Подписка на обновления:

Торренты, похожие на Уличный кот по кличке Боб A Street Cat Named Bob скачать торрент

Форум Название Автор Размер S L Добавлен
Зарубежные фильмы 2016-2019 (Новинки зарубежного кино) ·· Уличный кот по кличке Боб / A Street Cat Named Bob (2016) BDRip 1080p от HDReactor | P, A Galfimbul 83256311657.75 GB 0 0 1589617831

11:30

16-Май-20

Зарубежные фильмы 2016-2019 (Новинки зарубежного кино) ·%· Уличный кот по кличке Боб / A Street Cat Named Bob (2016) BDRip-AVC от HELLYWOOD | Лицензия Galfimbul 23415058762.18 GB 0 0 1554549030

14:10

6-Апр-19

Зарубежные фильмы 2016-2019 (Новинки зарубежного кино) ·· Уличный кот по кличке Боб / A Street Cat Named Bob (Роджер Споттисвуд / Roger Spottiswood) [2016, Великобритания, драма, комедия, семейный, биография, BDRip] AVO (Немахов) Galfimbul 15578562561.45 GB 0 0 1502397018

23:30

10-Авг-17

Зарубежные фильмы до 2016 ·· Уличный кот по кличке Боб / A Street Cat Named Bob (Роджер Споттисвуд / Roger Spottiswood) [2016, Великобритания, драма, комедия, семейный, биография, Blu-ray disc 1080p] [EUR] Galfimbul 3215144225929.94 GB 0 0 1495998781

22:13

28-Май-17

Зарубежные фильмы до 2016 ·· Уличный кот по кличке Боб / A Street Cat Named Bob (Роджер Споттисвуд / Roger Spottiswood) [2016, Великобритания, драма, комедия, семейный, биография, Blu-ray > DVD9 (Custom)] MVO + Original Eng + Sub (Rus, Eng) Galfimbul 75135488007 GB 0 0 1491049614

15:26

1-Апр-17

Зарубежные фильмы до 2016 ·· Уличный кот по кличке Боб / A Street Cat Named Bob (Роджер Споттисвуд / Roger Spottiswood) [2016, Великобритания, драма, комедия, семейный, биография, Blu-ray disc 1080p] MVO (CEE) + Sub Rus, Eng + Original Eng Galfimbul 3300738866530.74 GB 0 0 1489100233

01:57

10-Мар-17

Зарубежные фильмы до 2016 ·· Уличный кот по кличке Боб / A Street Cat Named Bob (Роджер Споттисвуд / Roger Spottiswoode) [2016, Великобритания, драма, комедия, семейный, биография, BDRip 720p] MVO + Sub Rus, Eng + Original Eng Galfimbul 49330074984.59 GB 0 0 1489100095

01:54

10-Мар-17

Зарубежные фильмы 2016-2019 (Новинки зарубежного кино) ·· Уличный кот по кличке Боб / A Street Cat Named Bob (Роджер Споттисвуд / Roger Spottiswoode) [2016, Великобритания, драма, комедия, семейный, биография, BDRip-AVC] MVO + Sub Rus, Eng + Original Eng Galfimbul 39539328483.68 GB 0 0 1488718567

15:56

5-Мар-17

Зарубежные фильмы 2016-2019 (Новинки зарубежного кино) ·· Уличный кот по кличке Боб / A Street Cat Named Bob (Роджер Споттисвуд / Roger Spottiswood) [2016, Великобритания, драма, комедия, семейный, биография, BDRip] MVO + Original Eng + Sub Rus, Eng Galfimbul 23162706202.16 GB 0 0 1488436165

09:29

2-Мар-17

Зарубежные фильмы 2016-2019 (Новинки зарубежного кино) ·· Уличный кот по кличке Боб / A Street Cat Named Bob (Роджер Споттисвуд / Roger Spottiswood) [2016, Великобритания, драма, комедия, семейный, биография, BDRip] MVO Galfimbul 15578521601.45 GB 0 0 1488436148

09:29

2-Мар-17

Зарубежные фильмы 2016-2019 (Новинки зарубежного кино) ·· Уличный кот по кличке Боб / A Street Cat Named Bob (Роджер Споттисвуд / Roger Spottiswood) [2016, Великобритания, драма, комедия, семейный, биография, BDRip] MVO Galfimbul 775088128739 MB 0 0 1488436143

09:29

2-Мар-17

Зарубежные фильмы 2016-2019 (Новинки зарубежного кино) ·· Уличный кот по кличке Боб / A Street Cat Named Bob (Роджер Споттисвуд / Roger Spottiswoode) [2016, Великобритания, драма, комедия, семейный, BDRip-AVC] MVO + Sub (rus) Galfimbul 15497796591.44 GB 0 0 1488436126

09:28

2-Мар-17

Зарубежные фильмы 2016-2019 (Новинки зарубежного кино) ·· Уличный кот по кличке Боб / A Street Cat Named Bob (Роджер Споттисвуд / Roger Spottiswoode) [2016, Великобритания, драма, комедия, семейный, BDRip-AVC] MVO + Original (eng) + Sub (rus, eng) Galfimbul 23178253082.16 GB 0 0 1488436120

09:28

2-Мар-17

Зарубежные фильмы 2016-2019 (Новинки зарубежного кино) ·· Уличный кот по кличке Боб / A Street Cat Named Bob (Роджер Споттисвуд / Roger Spottiswoode) [2016, Великобритания, драма, комедия, семейный, BDRip-AVC] MVO + Sub (rus) Galfimbul 782163699746 MB 0 0 1488436115

09:28

2-Мар-17

Еще никто не оставлял запись к записи скачать торрент Уличный кот по кличке Боб A Street Cat Named Bob . Будь первым!

!Обратная связь