Скачать через торрент Уличный кот по кличке Боб A Street Cat Named Bob Фильм бесплатно в хорошем качестве torrent

Скачивайте на UnionPeer.org фильмы через торрент без регистрации. Новинки кино в хорошем качестве через торрент. На UnionPeer.org можно скачать через торрент фильмы 2014 и 2015 годов. Самые новые фильмы.

Скачать торрент Уличный кот по кличке Боб A Street Cat Named Bob бесплатно через .torrent фильм мультфильм сериал

Статистика раздачи
Размер:  7.75 GB   |    Зарегистрирован:  3 года 9 месяцев   |    .torrent скачан:  46 раз   |   

Пиры будут получены при скачивании

 

Скачать Уличный кот по кличке Боб / A Street Cat Named Bob (2016) BDRip 1080p от HDReactor | P, A через torrent

 
 
Автор Сообщение

Galfimbul

avatar Galfimbul


Уличный кот по кличке Боб / A Street Cat Named Bob

Год выпуска: 2016
Жанр: Драма, комедия, семейный, биография
Выпущено: Великобритания, Shooting Films, Prescience, Iris Productions
Режиссер: Роджер Споттисвуд
В ролях: Люк Тредэвэй, Рута Гедминтас, Джоанн Фроггатт, Энтони Хэд, Даррен Эванс, Тони Джайавардена, Адам Ричез, Льюэлла Гидеон, Лоррейн Эшборн

О фильме: Рассказ о том, как Джеймс Боуэн, восстанавливающийся от наркотической зависимости уличный музыкант, встретил рыжего уличного кота и его жизнь изменилась в лучшую сторону.



Продолжительность: 01:42:48
Перевод: Профессиональный многоголосый, авторский
Субтитры: Русские, английские

Файл
Качество: BDRip (1080p)
Видео: MPEG-4 AVC, 9464 Кбит/с, 1920x802
Аудио #1: Русский (AC3, 6 ch, 448 Кбит/с) - MVO [BD EUR]
Аудио #2: Русский (AC3, 6 ch, 448 Кбит/с) - AVO [В.Котов]
Аудио #3: Английский (AC3, 6 ch, 448 Кбит/с) - оригинал
Формат : Matroska
Версия формата : Version 2
Размер файла : 7,75 Гбайт
Продолжительность : 1 ч. 42 м.
Общий поток : 10,8 Мбит/сек
Название фильма : ~V ad~
Дата кодирования : UTC 2017-11-01 17:03:18
Программа кодирования : mkvmerge v6.5.0 ('Isn't she lovely') built on Oct 20 2013 12:50:05
Библиотека кодирования : libebml v1.3.0 + libmatroska v1.4.1
Обложка : Yes
Attachments : cover.jpg

Видео
Идентификатор : 1
Формат : AVC
Формат/Информация : Advanced Video Codec
Профиль формата : [email protected]
Настройки формата : CABAC / 5 Ref Frames
Параметр CABAC формата : Да
Параметр RefFrames формата : 5 кадров
Идентификатор кодека : V_MPEG4/ISO/AVC
Продолжительность : 1 ч. 42 м.
Битрейт : 9464 Кбит/сек
Ширина : 1920 пикселей
Высота : 802 пикселя
Соотношение сторон : 2,40:1
Режим частоты кадров : Постоянный
Частота кадров : 23,976 (24000/1001) кадра/сек
Цветовое пространство : YUV
Субдискретизация насыщенности : 4:2:0
Битовая глубина : 8 бит
Тип развёртки : Прогрессивная
Бит/(Пиксели*Кадры) : 0.256
Размер потока : 6,63 Гбайт (86%)
Заголовок : ~V~
Библиотека кодирования : x264 core 152 r2851 ba24899
Настройки программы : cabac=1 / ref=5 / deblock=1:-3:-3 / analyse=0x3:0x133 / me=umh / subme=11 / psy=1 / psy_rd=0.95:0.00 / mixed_ref=1 / me_range=32 / chroma_me=1 / trellis=2 / 8x8dct=1 / cqm=0 / deadzone=21,11 / fast_pskip=0 / chroma_qp_offset=-2 / threads=12 / lookahead_threads=1 / sliced_threads=0 / nr=0 / decimate=0 / interlaced=0 / bluray_compat=0 / constrained_intra=0 / bframes=8 / b_pyramid=2 / b_adapt=2 / b_bias=0 / direct=3 / weightb=1 / open_gop=0 / weightp=2 / keyint=240 / keyint_min=23 / scenecut=40 / intra_refresh=0 / rc=2pass / mbtree=0 / bitrate=9464 / ratetol=1.0 / qcomp=0.80 / qpmin=0 / qpmax=69 / qpstep=4 / cplxblur=20.0 / qblur=0.5 / ip_ratio=1.28 / pb_ratio=1.36 / aq=3:0.65
Язык : English
Default : Да
Forced : Нет

Аудио #1
Идентификатор : 2
Формат : AC-3
Формат/Информация : Audio Coding 3
Параметр Endianness формата : Big
Идентификатор кодека : A_AC3
Продолжительность : 1 ч. 42 м.
Вид битрейта : Постоянный
Битрейт : 448 Кбит/сек
Каналы : 6 каналов
Расположение каналов : Front: L C R, Side: L R, LFE
Частота : 48,0 КГц
Частота кадров : 31,250 кадров/сек (1536 SPF)
Битовая глубина : 16 бит
Метод сжатия : С потерями
Размер потока : 329 Мбайт (4%)
Заголовок : MVO[BD EUR]
Язык : Russian
Default : Да
Forced : Нет

Аудио #2
Идентификатор : 3
Формат : AC-3
Формат/Информация : Audio Coding 3
Параметр Endianness формата : Big
Идентификатор кодека : A_AC3
Продолжительность : 1 ч. 42 м.
Вид битрейта : Постоянный
Битрейт : 448 Кбит/сек
Каналы : 6 каналов
Расположение каналов : Front: L C R, Side: L R, LFE
Частота : 48,0 КГц
Частота кадров : 31,250 кадров/сек (1536 SPF)
Битовая глубина : 16 бит
Метод сжатия : С потерями
Размер потока : 329 Мбайт (4%)
Заголовок : AVO[V.Kotov]
Язык : Russian
Default : Нет
Forced : Нет

Аудио #3
Идентификатор : 4
Формат : AC-3
Формат/Информация : Audio Coding 3
Параметр Endianness формата : Big
Идентификатор кодека : A_AC3
Продолжительность : 1 ч. 42 м.
Вид битрейта : Постоянный
Битрейт : 448 Кбит/сек
Каналы : 6 каналов
Расположение каналов : Front: L C R, Side: L R, LFE
Частота : 48,0 КГц
Частота кадров : 31,250 кадров/сек (1536 SPF)
Битовая глубина : 16 бит
Метод сжатия : С потерями
Размер потока : 329 Мбайт (4%)
Заголовок : [original]
Язык : English
Default : Нет
Forced : Нет

Текст #1
Идентификатор : 5
Формат : UTF-8
Идентификатор кодека : S_TEXT/UTF8
Идентификатор кодека/Информация : UTF-8 Plain Text
Заголовок : Forced
Язык : Russian
Default : Да
Forced : Нет

Текст #2
Идентификатор : 6
Формат : UTF-8
Идентификатор кодека : S_TEXT/UTF8
Идентификатор кодека/Информация : UTF-8 Plain Text
Заголовок : Full
Язык : Russian
Default : Нет
Forced : Нет

Текст #3
Идентификатор : 7
Формат : UTF-8
Идентификатор кодека : S_TEXT/UTF8
Идентификатор кодека/Информация : UTF-8 Plain Text
Заголовок : Full
Язык : English
Default : Нет
Forced : Нет

Меню
00:00:00.000 : en:Chapter 1
00:06:55.164 : en:Chapter 2
00:11:37.071 : en:Chapter 3
00:18:52.881 : en:Chapter 4
00:28:30.250 : en:Chapter 5
00:31:36.895 : en:Chapter 6
00:37:52.061 : en:Chapter 7
00:45:03.242 : en:Chapter 8
00:49:39.810 : en:Chapter 9
00:54:35.063 : en:Chapter 10
01:03:16.000 : en:Chapter 11
01:07:13.821 : en:Chapter 12
01:11:18.774 : en:Chapter 13
01:19:17.502 : en:Chapter 14
01:27:15.897 : en:Chapter 15
01:34:30.665 : en:Chapter 16
x264 [info]: frame I:1302 Avg QP:15.81 size:183713
x264 [info]: frame P:33023 Avg QP:17.57 size: 91702
x264 [info]: frame B:113559 Avg QP:20.13 size: 35397
Сэмпл

Источник http://listRutor.org

Внимание! AdBlock блокирует показ скриншотов, все вопросы к разработчикам )))
Трекер:  [ 16-Май-2020 11:30 ]

  

Скачать .torrent

Размер .torrent файла 20 KB


Размер: 7.75 GB
Хэш (hash) релиза: 6061b40affebfaad5eae10433883817828e9e8f6
Подписка на обновления:

Торренты, похожие на Уличный кот по кличке Боб A Street Cat Named Bob скачать торрент

Форум Название Автор Размер S L Добавлен
Зарубежные фильмы 2016-2019 (Новинки зарубежного кино) ·%· Уличный кот по кличке Боб / A Street Cat Named Bob (2016) BDRip-AVC от HELLYWOOD | Лицензия Galfimbul 23415058762.18 GB 0 0 1554549030

14:10

6-Апр-19

Зарубежные фильмы 2016-2019 (Новинки зарубежного кино) ·· Уличный кот по кличке Боб / A Street Cat Named Bob (Роджер Споттисвуд / Roger Spottiswood) [2016, Великобритания, драма, комедия, семейный, биография, BDRip] AVO (Немахов) Galfimbul 15578562561.45 GB 0 0 1502397018

23:30

10-Авг-17

Зарубежные фильмы до 2016 ·· Уличный кот по кличке Боб / A Street Cat Named Bob (Роджер Споттисвуд / Roger Spottiswood) [2016, Великобритания, драма, комедия, семейный, биография, Blu-ray disc 1080p] [EUR] Galfimbul 3215144225929.94 GB 0 0 1495998781

22:13

28-Май-17

Зарубежные фильмы до 2016 ·· Уличный кот по кличке Боб / A Street Cat Named Bob (Роджер Споттисвуд / Roger Spottiswood) [2016, Великобритания, драма, комедия, семейный, биография, Blu-ray > DVD9 (Custom)] MVO + Original Eng + Sub (Rus, Eng) Galfimbul 75135488007 GB 0 0 1491049614

15:26

1-Апр-17

Зарубежные фильмы до 2016 ·· Уличный кот по кличке Боб / A Street Cat Named Bob (Роджер Споттисвуд / Roger Spottiswood) [2016, Великобритания, драма, комедия, семейный, биография, Blu-ray disc 1080p] MVO (CEE) + Sub Rus, Eng + Original Eng Galfimbul 3300738866530.74 GB 0 0 1489100233

01:57

10-Мар-17

Зарубежные фильмы до 2016 ·· Уличный кот по кличке Боб / A Street Cat Named Bob (Роджер Споттисвуд / Roger Spottiswoode) [2016, Великобритания, драма, комедия, семейный, биография, BDRip 720p] MVO + Sub Rus, Eng + Original Eng Galfimbul 49330074984.59 GB 0 0 1489100095

01:54

10-Мар-17

Зарубежные фильмы 2016-2019 (Новинки зарубежного кино) ·· Уличный кот по кличке Боб / A Street Cat Named Bob (Роджер Споттисвуд / Roger Spottiswoode) [2016, Великобритания, драма, комедия, семейный, биография, BDRip-AVC] MVO + Sub Rus, Eng + Original Eng Galfimbul 39539328483.68 GB 0 0 1488718567

15:56

5-Мар-17

Зарубежные фильмы 2016-2019 (Новинки зарубежного кино) ·· Уличный кот по кличке Боб / A Street Cat Named Bob (Роджер Споттисвуд / Roger Spottiswood) [2016, Великобритания, драма, комедия, семейный, биография, BDRip] MVO + Original Eng + Sub Rus, Eng Galfimbul 23162706202.16 GB 0 0 1488436165

09:29

2-Мар-17

Зарубежные фильмы 2016-2019 (Новинки зарубежного кино) ·· Уличный кот по кличке Боб / A Street Cat Named Bob (Роджер Споттисвуд / Roger Spottiswood) [2016, Великобритания, драма, комедия, семейный, биография, BDRip] MVO Galfimbul 15578521601.45 GB 0 0 1488436148

09:29

2-Мар-17

Зарубежные фильмы 2016-2019 (Новинки зарубежного кино) ·· Уличный кот по кличке Боб / A Street Cat Named Bob (Роджер Споттисвуд / Roger Spottiswood) [2016, Великобритания, драма, комедия, семейный, биография, BDRip] MVO Galfimbul 775088128739 MB 0 0 1488436143

09:29

2-Мар-17

Зарубежные фильмы 2016-2019 (Новинки зарубежного кино) ·· Уличный кот по кличке Боб / A Street Cat Named Bob (Роджер Споттисвуд / Roger Spottiswoode) [2016, Великобритания, драма, комедия, семейный, BDRip-AVC] MVO + Sub (rus) Galfimbul 15497796591.44 GB 0 0 1488436126

09:28

2-Мар-17

Зарубежные фильмы 2016-2019 (Новинки зарубежного кино) ·· Уличный кот по кличке Боб / A Street Cat Named Bob (Роджер Споттисвуд / Roger Spottiswoode) [2016, Великобритания, драма, комедия, семейный, BDRip-AVC] MVO + Original (eng) + Sub (rus, eng) Galfimbul 23178253082.16 GB 0 0 1488436120

09:28

2-Мар-17

Зарубежные фильмы 2016-2019 (Новинки зарубежного кино) ·· Уличный кот по кличке Боб / A Street Cat Named Bob (Роджер Споттисвуд / Roger Spottiswoode) [2016, Великобритания, драма, комедия, семейный, BDRip-AVC] MVO + Sub (rus) Galfimbul 782163699746 MB 0 0 1488436115

09:28

2-Мар-17

Зарубежные фильмы 2016-2019 (Новинки зарубежного кино) ·· Уличный кот по кличке Боб / A Street Cat Named Bob (Роджер Споттисвуд) [2016, драма, комедия, семейный, биография, BDRip 1080p] Лицензия Galfimbul 1172745498610.92 GB 0 0 1488215851

20:17

27-Фев-17

Еще никто не оставлял запись к записи скачать торрент Уличный кот по кличке Боб A Street Cat Named Bob . Будь первым!

!Обратная связь