Скачать через торрент Уличный кот по кличке Боб A Street Cat Named Bob Фильм бесплатно в хорошем качестве torrent

Скачивайте на UnionPeer.org фильмы через торрент без регистрации. Новинки кино в хорошем качестве через торрент. На UnionPeer.org можно скачать через торрент фильмы 2014 и 2015 годов. Самые новые фильмы.

Скачать торрент Уличный кот по кличке Боб A Street Cat Named Bob бесплатно через .torrent фильм мультфильм сериал

Статистика раздачи
Размер:  1.45 GB   |    Зарегистрирован:  6 лет 6 месяцев   |    .torrent скачан:  126 раз   |   
Раздают:  1  
   
 
Автор Сообщение

Galfimbul

avatar Galfimbul


Уличный кот по кличке Боб / A Street Cat Named Bob
Страна: Великобритания
Жанр: драма, комедия, семейный, биография
Год выпуска: 2016
Продолжительность: 01:42:48

Перевод: Авторский (одноголосый закадровый) Юрий Немахов
Субтитры: нет

Режиссер: Роджер Споттисвуд / Roger Spottiswood

В ролях: Люк Тредэвэй, Рута Гедминтас, Джоанн Фроггатт, Энтони Хэд, Даррен Эванс, Тони Джайавардена, Адам Ричез, Льюэлла Гидеон, Лоррейн Эшборн

Описание: Рассказ о том, как Джеймс Боуэн, восстанавливающийся от наркотической зависимости уличный музыкант, встретил рыжего уличного кота и его жизнь изменилась в лучшую сторону.



Качество видео: ВDRip
Формат видео: AVI
Видео кодек: XviD
Аудио кодек: AC3

Видео: 720x304 (2.37:1), 23.976 fps, XviD build 67 ~1563 kbps avg, 0.30 bit/pixel
Аудио: 48 kHz, AC3 Dolby Digital, 3/2 (L,C,R,l,r) + LFE ch, ~448 kbps
за видеоряд спасибо ivanes20031987
Полное имя : Уличный кот по кличке Боб.avi
Формат : AVI
Формат/Информация : Audio Video Interleave
Размер файла : 1,45 Гбайт
Продолжительность : 1 ч. 42 м.
Общий поток : 2021 Кбит/сек
Программа кодирования : VirtualDubMod 1.5.10.3 | www.virtualdub-fr.org || (build 2550/release)
Библиотека кодирования : VirtualDubMod build 2550/release

Видео
Идентификатор : 0
Формат : MPEG-4 Visual
Профиль формата : Advanced Simple@L5
Параметр BVOP формата : 1
Параметр QPel формата : Нет
Параметр GMC формата : Без точки перехода
Параметр матрицы формата : Выборочная
Идентификатор кодека : XVID
Идентификатор кодека/Подсказка : XviD
Продолжительность : 1 ч. 42 м.
Битрейт : 1563 Кбит/сек
Ширина : 720 пикселей
Высота : 304 пикселя
Соотношение сторон : 2,35:1
Частота кадров : 23,976 кадра/сек
Цветовое пространство : YUV
Субдискретизация насыщенности : 4:2:0
Битовая глубина : 8 бит
Тип развёртки : Прогрессивная
Метод сжатия : С потерями
Бит/(Пиксели*Кадры) : 0.298
Размер потока : 1,12 Гбайт (77%)
Библиотека кодирования : XviD 67

Аудио
Идентификатор : 1
Формат : AC-3
Формат/Информация : Audio Coding 3
Расширение режима : CM (complete main)
Параметр Endianness формата : Big
Идентификатор кодека : 2000
Продолжительность : 1 ч. 42 м.
Вид битрейта : Постоянный
Битрейт : 448 Кбит/сек
Каналы : 6 каналов
Расположение каналов : Front: L C R, Side: L R, LFE
Частота : 48,0 КГц
Метод сжатия : С потерями
Размер потока : 329 Мбайт (22%)
Выравнивание : Разделение по промежуткам
Продолжительность промежутка : 42 мс. (1,00 видеокадр)
Время предзагрузки промежутка : 500 мс.


Внимание! AdBlock блокирует показ скриншотов, все вопросы к разработчикам )))
Трекер:  [ 10-Авг-2017 23:30 ]

  

Скачать .torrent

Размер .torrent файла 15 KB


Размер: 1.45 GB
Хэш (hash) релиза: 3c7c6df4551387609b590a4eaba01f896b623473
Подписка на обновления:

Торренты, похожие на Уличный кот по кличке Боб A Street Cat Named Bob скачать торрент

Форум Название Автор Размер S L Добавлен
Зарубежные фильмы 2016-2019 (Новинки зарубежного кино) ·· Уличный кот по кличке Боб / A Street Cat Named Bob (2016) BDRip 1080p от HDReactor | P, A Galfimbul 83256311657.75 GB 0 0 1589617831

11:30

16-Май-20

Зарубежные фильмы 2016-2019 (Новинки зарубежного кино) ·%· Уличный кот по кличке Боб / A Street Cat Named Bob (2016) BDRip-AVC от HELLYWOOD | Лицензия Galfimbul 23415058762.18 GB 0 0 1554549030

14:10

6-Апр-19

Зарубежные фильмы до 2016 ·· Уличный кот по кличке Боб / A Street Cat Named Bob (Роджер Споттисвуд / Roger Spottiswood) [2016, Великобритания, драма, комедия, семейный, биография, Blu-ray disc 1080p] [EUR] Galfimbul 3215144225929.94 GB 0 0 1495998781

22:13

28-Май-17

Зарубежные фильмы до 2016 ·· Уличный кот по кличке Боб / A Street Cat Named Bob (Роджер Споттисвуд / Roger Spottiswood) [2016, Великобритания, драма, комедия, семейный, биография, Blu-ray > DVD9 (Custom)] MVO + Original Eng + Sub (Rus, Eng) Galfimbul 75135488007 GB 0 0 1491049614

15:26

1-Апр-17

Зарубежные фильмы до 2016 ·· Уличный кот по кличке Боб / A Street Cat Named Bob (Роджер Споттисвуд / Roger Spottiswood) [2016, Великобритания, драма, комедия, семейный, биография, Blu-ray disc 1080p] MVO (CEE) + Sub Rus, Eng + Original Eng Galfimbul 3300738866530.74 GB 0 0 1489100233

01:57

10-Мар-17

Зарубежные фильмы до 2016 ·· Уличный кот по кличке Боб / A Street Cat Named Bob (Роджер Споттисвуд / Roger Spottiswoode) [2016, Великобритания, драма, комедия, семейный, биография, BDRip 720p] MVO + Sub Rus, Eng + Original Eng Galfimbul 49330074984.59 GB 0 0 1489100095

01:54

10-Мар-17

Зарубежные фильмы 2016-2019 (Новинки зарубежного кино) ·· Уличный кот по кличке Боб / A Street Cat Named Bob (Роджер Споттисвуд / Roger Spottiswoode) [2016, Великобритания, драма, комедия, семейный, биография, BDRip-AVC] MVO + Sub Rus, Eng + Original Eng Galfimbul 39539328483.68 GB 0 0 1488718567

15:56

5-Мар-17

Зарубежные фильмы 2016-2019 (Новинки зарубежного кино) ·· Уличный кот по кличке Боб / A Street Cat Named Bob (Роджер Споттисвуд / Roger Spottiswood) [2016, Великобритания, драма, комедия, семейный, биография, BDRip] MVO + Original Eng + Sub Rus, Eng Galfimbul 23162706202.16 GB 0 0 1488436165

09:29

2-Мар-17

Зарубежные фильмы 2016-2019 (Новинки зарубежного кино) ·· Уличный кот по кличке Боб / A Street Cat Named Bob (Роджер Споттисвуд / Roger Spottiswood) [2016, Великобритания, драма, комедия, семейный, биография, BDRip] MVO Galfimbul 15578521601.45 GB 0 0 1488436148

09:29

2-Мар-17

Зарубежные фильмы 2016-2019 (Новинки зарубежного кино) ·· Уличный кот по кличке Боб / A Street Cat Named Bob (Роджер Споттисвуд / Roger Spottiswood) [2016, Великобритания, драма, комедия, семейный, биография, BDRip] MVO Galfimbul 775088128739 MB 0 0 1488436143

09:29

2-Мар-17

Зарубежные фильмы 2016-2019 (Новинки зарубежного кино) ·· Уличный кот по кличке Боб / A Street Cat Named Bob (Роджер Споттисвуд / Roger Spottiswoode) [2016, Великобритания, драма, комедия, семейный, BDRip-AVC] MVO + Sub (rus) Galfimbul 15497796591.44 GB 0 0 1488436126

09:28

2-Мар-17

Зарубежные фильмы 2016-2019 (Новинки зарубежного кино) ·· Уличный кот по кличке Боб / A Street Cat Named Bob (Роджер Споттисвуд / Roger Spottiswoode) [2016, Великобритания, драма, комедия, семейный, BDRip-AVC] MVO + Original (eng) + Sub (rus, eng) Galfimbul 23178253082.16 GB 0 0 1488436120

09:28

2-Мар-17

Зарубежные фильмы 2016-2019 (Новинки зарубежного кино) ·· Уличный кот по кличке Боб / A Street Cat Named Bob (Роджер Споттисвуд / Roger Spottiswoode) [2016, Великобритания, драма, комедия, семейный, BDRip-AVC] MVO + Sub (rus) Galfimbul 782163699746 MB 0 0 1488436115

09:28

2-Мар-17

Зарубежные фильмы 2016-2019 (Новинки зарубежного кино) ·· Уличный кот по кличке Боб / A Street Cat Named Bob (Роджер Споттисвуд) [2016, драма, комедия, семейный, биография, BDRip 1080p] Лицензия Galfimbul 1172745498610.92 GB 0 0 1488215851

20:17

27-Фев-17

Еще никто не оставлял запись к записи скачать торрент Уличный кот по кличке Боб A Street Cat Named Bob . Будь первым!

!Обратная связь