Скачать через торрент Призрачная красота Collateral Beauty Фильм бесплатно в хорошем качестве torrent

Скачивайте на UnionPeer.org фильмы через торрент без регистрации. Новинки кино в хорошем качестве через торрент. На UnionPeer.org можно скачать через торрент фильмы 2014 и 2015 годов. Самые новые фильмы.

Скачать торрент Призрачная красота Collateral Beauty бесплатно через .torrent фильм мультфильм сериал

Статистика раздачи
Размер:  9.55 GB   |    Зарегистрирован:  6 лет 11 месяцев   |    .torrent скачан:  121 раз   |   
Раздают:  1  
 

Скачать Призрачная красота / Collateral Beauty (Дэвид Фрэнкел / David Frankel) [2016, США, драма, BDRip 1080p] Dub (iTunes) + Sub Rus, Eng + Original Eng через torrent

 
 
Автор Сообщение

Galfimbul

avatar Galfimbul


Призрачная красота / Collateral Beauty

Страна: США
Студия: Overbrook Entertainment
Жанр: драма
Год выпуска: 2016
Продолжительность: 01:36:39

Перевод: Профессиональный (дублированный) iTunes
Cубтитры: Русские, Украинские, Английские
Оригинальная аудиодорожка: английский

Режиссер: Дэвид Фрэнкел David Frankel

В ролях: Уилл Смит, Эдвард Нортон, Кейт Уинслет, Майкл Пенья, Хелен Миррен, Наоми Харрис, Кира Найтли, Джейкоб Латимор, Энн Дауд, Лиза Колон-Зайас

Описание: Главный герой работает в рекламном агентстве Нью-Йорка. Не так давно в его личной жизни произошла трагедия, ввергнувшая его в тяжелейшую депрессию. Коллеги пытаются помочь и разрабатывают нетрадиционный план по возвращению друга обратно на твёрдую почву, однако план срабатывает неожиданным образом.

<div class="post-box">Скачать сэмпл</div>

Тип релиза: BDRip 1080p
Контейнер: MKV

Видео: MPEG-4 AVC, 12,1 Мбит/с, 1920x800, 23,976 fps
Аудио: Rus, AC3, 384 kb/s (6 ch), 48 kHz
Аудио 2: Ukr, AC3, 192 kb/s (2 ch), 48 kHz
Аудио 3: Eng, DTS, 1509 kb/s (6 ch), 48 kHz
Общее
Уникальный идентификатор : 181739236790206406446293155156322302295 (0x88B9B42D9372ADAE9BAA9F28ECA23957)
Полное имя : Collateral.Beauty.2016.x264.BDRip.1080p.BLUEBIRD.mkv
Формат : Matroska
Версия формата : Version 4 / Version 2
Размер файла : 9,55 Гбайт
Продолжительность : 1 ч. 36 м.
Общий поток : 14,1 Мбит/сек
Название фильма : Collateral.Beauty.2016.x264.BDRip.1080p.BLUEBIRD
Дата кодирования : UTC 2017-03-02 08:47:41
Программа кодирования : mkvmerge v7.9.0 ('Birds') 32bit
Библиотека кодирования : libebml v1.3.1 + libmatroska v1.4.2

Видео
Идентификатор : 1
Формат : AVC
Формат/Информация : Advanced Video Codec
Профиль формата : [email protected]
Параметр CABAC формата : Да
Параметр ReFrames формата : 5 кадров
Идентификатор кодека : V_MPEG4/ISO/AVC
Продолжительность : 1 ч. 36 м.
Битрейт : 12,1 Мбит/сек
Ширина : 1920 пикселей
Высота : 800 пикселей
Соотношение сторон : 2,40:1
Режим частоты кадров : Постоянный
Частота кадров : 23,976 (24000/1001) кадра/сек
Цветовое пространство : YUV
Субдискретизация насыщенности : 4:2:0
Битовая глубина : 8 бит
Тип развёртки : Прогрессивная
Бит/(Пиксели*Кадры) : 0.327
Размер потока : 8,14 Гбайт (85%)
Заголовок : Collateral.Beauty.2016.x264.BDRip.1080p.BLUEBIRD
Библиотека кодирования : x264 core 148 r2744 b97ae06
Настройки программы : cabac=1 / ref=5 / deblock=1:-3:-3 / analyse=0x3:0x133 / me=umh / subme=11 / psy=1 / psy_rd=1.06:0.05 / mixed_ref=1 / me_range=32 / chroma_me=1 / trellis=2 / 8x8dct=1 / cqm=0 / deadzone=21,11 / fast_pskip=0 / chroma_qp_offset=-3 / threads=12 / lookahead_threads=1 / sliced_threads=0 / nr=0 / decimate=0 / interlaced=0 / bluray_compat=0 / constrained_intra=0 / bframes=8 / b_pyramid=2 / b_adapt=1 / b_bias=0 / direct=3 / weightb=1 / open_gop=0 / weightp=2 / keyint=240 / keyint_min=23 / scenecut=40 / intra_refresh=0 / rc_lookahead=60 / rc=crf / mbtree=0 / crf=17.7 / qcomp=0.75 / qpmin=0 / qpmax=69 / qpstep=4 / vbv_maxrate=62500 / vbv_bufsize=78125 / crf_max=0.0 / nal_hrd=none / filler=0 / ip_ratio=1.40 / pb_ratio=1.30 / aq=1:0.80 / zones=0,1308,q=28/133888,139042,q=30
Язык : English
Default : Да
Forced : Нет

Аудио #1
Идентификатор : 2
Формат : AC-3
Формат/Информация : Audio Coding 3
Расширение режима : CM (complete main)
Параметр Endianness формата : Big
Идентификатор кодека : A_AC3
Продолжительность : 1 ч. 36 м.
Вид битрейта : Постоянный
Битрейт : 384 Кбит/сек
Каналы : 6 каналов
Расположение каналов : Front: L C R, Side: L R, LFE
Частота : 48,0 КГц
Частота кадров : 31,250 кадров/сек (1536 spf)
Метод сжатия : С потерями
Размер потока : 265 Мбайт (3%)
Заголовок : Дублированный (iTunes)
Язык : Russian
Default : Да
Forced : Нет

Аудио #2
Идентификатор : 3
Формат : AC-3
Формат/Информация : Audio Coding 3
Расширение режима : CM (complete main)
Параметр Endianness формата : Big
Идентификатор кодека : A_AC3
Продолжительность : 1 ч. 36 м.
Вид битрейта : Постоянный
Битрейт : 192 Кбит/сек
Каналы : 2 канала
Расположение каналов : Front: L R
Частота : 48,0 КГц
Частота кадров : 31,250 кадров/сек (1536 spf)
Метод сжатия : С потерями
Размер потока : 133 Мбайт (1%)
Заголовок : Дублированный (iTunes)
Язык : Ukrainian
Default : Нет
Forced : Нет

Аудио #3
Идентификатор : 4
Формат : DTS
Формат/Информация : Digital Theater Systems
Режим : 16
Параметр Endianness формата : Big
Идентификатор кодека : A_DTS
Продолжительность : 1 ч. 36 м.
Вид битрейта : Постоянный
Битрейт : 1509 Кбит/сек
Каналы : 6 каналов
Расположение каналов : Front: L C R, Side: L R, LFE
Частота : 48,0 КГц
Частота кадров : 93,750 кадра/сек (512 spf)
Битовая глубина : 24 бит
Метод сжатия : С потерями
Размер потока : 1,02 Гбайт (11%)
Язык : English
Default : Нет
Forced : Нет

Текст #1
Идентификатор : 5
Формат : UTF-8
Идентификатор кодека : S_TEXT/UTF8
Идентификатор кодека/Информация : UTF-8 Plain Text
Продолжительность : 1 ч. 35 м.
Битрейт : 1 бит/сек
Count of elements : 19
Размер потока : 925 байт (0%)
Заголовок : forced
Язык : Russian
Default : Нет
Forced : Нет

Текст #2
Идентификатор : 6
Формат : UTF-8
Идентификатор кодека : S_TEXT/UTF8
Идентификатор кодека/Информация : UTF-8 Plain Text
Продолжительность : 1 ч. 36 м.
Битрейт : 96 бит/сек
Count of elements : 1445
Размер потока : 67,6 Кбайт (0%)
Заголовок : full
Язык : Russian
Default : Нет
Forced : Нет

Текст #3
Идентификатор : 7
Формат : UTF-8
Идентификатор кодека : S_TEXT/UTF8
Идентификатор кодека/Информация : UTF-8 Plain Text
Продолжительность : 1 ч. 22 м.
Битрейт : 1 бит/сек
Count of elements : 16
Размер потока : 884 байт (0%)
Заголовок : forced
Язык : Ukrainian
Default : Нет
Forced : Нет

Текст #4
Идентификатор : 8
Формат : UTF-8
Идентификатор кодека : S_TEXT/UTF8
Идентификатор кодека/Информация : UTF-8 Plain Text
Продолжительность : 1 ч. 30 м.
Битрейт : 66 бит/сек
Count of elements : 1449
Размер потока : 44,1 Кбайт (0%)
Заголовок : full
Язык : English
Default : Нет
Forced : Нет

Текст #5
Идентификатор : 9
Формат : UTF-8
Идентификатор кодека : S_TEXT/UTF8
Идентификатор кодека/Информация : UTF-8 Plain Text
Продолжительность : 1 ч. 30 м.
Битрейт : 69 бит/сек
Count of elements : 1518
Размер потока : 46,2 Кбайт (0%)
Заголовок : SDH
Язык : English
Default : Нет
Forced : Нет

Меню
00:00:00.000 : en:00:00:00.000
00:10:20.076 : en:00:10:20.076
00:21:30.413 : en:00:21:30.413
00:33:57.117 : en:00:33:57.117
00:42:43.309 : en:00:42:43.309
00:53:07.184 : en:00:53:07.184
01:01:04.327 : en:01:01:04.327
01:08:55.046 : en:01:08:55.046
01:22:15.930 : en:01:22:15.930
01:33:09.625 : en:01:33:09.625


Внимание! AdBlock блокирует показ скриншотов, все вопросы к разработчикам )))
Трекер:  [ 10-Мар-2017 01:00 ]

  

Скачать .torrent

Размер .torrent файла 24 KB


Размер: 9.55 GB
Хэш (hash) релиза: 6792e733be33e2be5d2b5b7899003914f5c418a9
Подписка на обновления:

Торренты, похожие на Призрачная красота Collateral Beauty скачать торрент

Форум Название Автор Размер S L Добавлен
Зарубежные фильмы до 2016 ·· Призрачная красота / Collateral Beauty (Дэвид Фрэнкел / David Frankel) [2016, США, Драма, мелодрама, DVD9] R5 Dub + Sub Rus + Original Eng Galfimbul 62051287045.78 GB 0 0 1525552246

23:30

5-Май-18

Трейлеры и дополнительные материалы ·· Призрачная Красота / Collateral Beauty (Дэвид Фрэнкел / David Frankel) [2016, Драма, BDRip] дополнительные материалы Galfimbul 473456215452 MB 0 0 1491133429

14:43

2-Апр-17

Зарубежные фильмы до 2016 ·· Призрачная красота / Collateral Beauty (Дэвид Фрэнкел / David Frankel) [2016, США, драма, мелодрама, Blu-ray disc 1080p] [CEE] Dub + Sub Rus, Eng + Original Eng Galfimbul 3594481432033.48 GB 1 1 1490895966

20:46

30-Мар-17

Зарубежные фильмы до 2016 ·· Призрачная красота / Collateral Beauty (Дэвид Фрэнкел / David Frankel) [2016, США, драма, BDRip 720p] Dub (iTunes) + Sub Rus, Eng + Original Eng Galfimbul 50734506994.73 GB 0 0 1489100056

01:54

10-Мар-17

Зарубежные фильмы 2016-2019 (Новинки зарубежного кино) ·· Призрачная красота / Collateral Beauty (Дэвид Фрэнкел / David Frankel) [2016, США, драма, Blu-ray 1080p] iTunes Galfimbul 3341180850031.12 GB 0 0 1488984097

17:41

8-Мар-17

Зарубежные фильмы 2016-2019 (Новинки зарубежного кино) ·· Призрачная красота / Collateral Beauty (Дэвид Фрэнкел / David Frankel) [2016, США, драма, BDRip-AVC] Dub + Original Eng + Sub (Rus, Eng) Galfimbul 22070223972.06 GB 0 0 1488475790

20:29

2-Мар-17

Зарубежные фильмы 2016-2019 (Новинки зарубежного кино) ·· Призрачная красота / Collateral Beauty (Дэвид Фрэнкел / David Frankel) [2016, США, драма, HDRip] Dub (iTunes) Galfimbul 15636951041.46 GB 0 0 1488436071

09:27

2-Мар-17

Зарубежные фильмы 2016-2019 (Новинки зарубежного кино) ·· Призрачная красота / Collateral Beauty (Дэвид Фрэнкел / David Frankel) [2016, США, драма, HDRip] Dub (iTunes) Galfimbul 781138408745 MB 0 0 1488436065

09:27

2-Мар-17

Зарубежные фильмы 2016-2019 (Новинки зарубежного кино) ·· Призрачная красота / Collateral Beauty (Дэвид Фрэнкел / David Frankel) [2016, США, драма, BDRip-AVC] Dub (iTunes) Galfimbul 15227611941.42 GB 0 0 1488436047

09:27

2-Мар-17

Зарубежные фильмы 2016-2019 (Новинки зарубежного кино) ·· Призрачная красота / Collateral Beauty (Дэвид Фрэнкел) [2016, драма, BDRip 1080p] iTunes Galfimbul 84925814747.91 GB 0 0 1488321628

01:40

1-Мар-17

Зарубежные фильмы 2016-2019 (Новинки зарубежного кино) ·· Призрачная красота / Collateral Beauty (Дэвид Фрэнкел) [2016, драма, CAMRip] Galfimbul 14675128321.37 GB 0 0 1481904876

19:14

16-Дек-16

Еще никто не оставлял запись к записи скачать торрент Призрачная красота Collateral Beauty . Будь первым!

!Обратная связь