Скачать через торрент Синг Стрит Sing Street Фильм бесплатно в хорошем качестве torrent

Скачивайте на UnionPeer.org фильмы через торрент без регистрации. Новинки кино в хорошем качестве через торрент. На UnionPeer.org можно скачать через торрент фильмы 2014 и 2015 годов. Самые новые фильмы.

Скачать торрент Синг Стрит Sing Street бесплатно через .torrent фильм мультфильм сериал

Статистика раздачи
Размер:  1.46 GB   |    Зарегистрирован:  6 лет 11 месяцев   |    .torrent скачан:  85 раз   |   
Раздают:  1  
 

Скачать Синг Стрит / Sing Street (Джон Карни) [2016, Ирландия, Великобритания, США, Драма, мелодрама, комедия, музыка, BDRip] VO (Михаил Яроцкий) + Sub Rus через torrent

 
 
Автор Сообщение

Galfimbul

avatar Galfimbul


Синг Стрит / Sing Street
«Boy meets girl, girl unimpressed, boy starts band»
Страна: Ирландия, Великобритания, США
Жанр: Драма, мелодрама, комедия, музыка
Год выпуска: 2016
Продолжительность: 01:45:24
Перевод: Одноголосый закадровый - Михаил Яроцкий
Cубтитры: русские (на песни)
Оригинальная аудиодорожка: нет

Режиссер: Джон Карни / John Carney

В ролях: Фердия Уолш-Пило, Келли Торнтон, Мария Дойл Кеннеди, Джек Рейнор, Эйден Гиллен, Йен Кенни, Бен Керолан, Перси Чамбурука, Марк МакКенна, Дон Вичерли
Описание: Ностальгическая музыкальная драма о взрослении. Когда экономический кризис 1980-х ударяет по семье Конора, его переводят из престижной частной школы в государственную. Подросток сталкивается с грубостью и невежеством новой среды и, кроме того, влюбляется в недосягаемую красавицу. Желая впечатлить девушку, Конор собирает рок-группу.

Качество видео: BDRip [Sing.Street.2016.1080p.BluRay.AVC.DTS-HD.MA.5.1-RARBG]
Формат видео: AVI

Видео: XviD, 720x304 (2.35:1), 23.976 fps, 1529 kbps, 0.291 bit/pixel
Аудио: 48 kHz, AC3 Dolby Digital, 3/2 (L,C,R,l,r) + LFE ch, ~448 kbps VO - Михаил Яроцкий
Формат субтитров: softsub (SRT) - отдельным файлом
Перевод Михаила Яроцкого доступен благодаря: iVov4ik
Работа со звуком: Переводман
Внимание! Однократно присутствует ненормативное выражение!
Format : AVI
Format/Info : Audio Video Interleave
File size : 1.46 GiB
Duration : 1h 45mn
Overall bit rate : 1 985 Kbps

Video
ID : 0
Format : MPEG-4 Visual
Format profile : Advanced Simple@L5
Format settings, BVOP : 1
Format settings, QPel : No
Format settings, GMC : No warppoints
Format settings, Matrix : Custom
Codec ID : XVID
Codec ID/Hint : XviD
Duration : 1h 45mn
Bit rate : 1 529 Kbps
Width : 720 pixels
Height : 304 pixels
Display aspect ratio : 2.35:1
Frame rate : 23.976 fps
Color space : YUV
Chroma subsampling : 4:2:0
Bit depth : 8 bits
Scan type : Progressive
Compression mode : Lossy
Bits/(Pixel*Frame) : 0.291
Stream size : 1.13 GiB (77%)
Writing library : XviD 73

Audio
ID : 1
Format : AC-3
Format/Info : Audio Coding 3
Mode extension : CM (complete main)
Format settings, Endianness : Big
Codec ID : 2000
Duration : 1h 45mn
Bit rate mode : Constant
Bit rate : 448 Kbps
Channel(s) : 6 channels
Channel positions : Front: L C R, Side: L R, LFE
Sampling rate : 48.0 KHz
Bit depth : 16 bits
Compression mode : Lossy
Stream size : 338 MiB (23%)
Alignment : Aligned on interleaves
Interleave, duration : 64 ms (1.53 video frames)
Interleave, preload duration : 192 ms


Внимание! AdBlock блокирует показ скриншотов, все вопросы к разработчикам )))
Трекер:  [ 19-Мар-2017 09:00 ]

  

Скачать .torrent

Размер .torrent файла 15 KB


Размер: 1.46 GB
Хэш (hash) релиза: 24fa53468eed268323f6afbadee800f9ed1fa8bf
Подписка на обновления:

Еще никто не оставлял запись к записи скачать торрент Синг Стрит Sing Street . Будь первым!

!Обратная связь