Скачать через торрент Синг Стрит Sing Street Фильм бесплатно в хорошем качестве torrent

Скачивайте на UnionPeer.org фильмы через торрент без регистрации. Новинки кино в хорошем качестве через торрент. На UnionPeer.org можно скачать через торрент фильмы 2014 и 2015 годов. Самые новые фильмы.

Скачать торрент Синг Стрит Sing Street бесплатно через .torrent фильм мультфильм сериал

Статистика раздачи
Размер:  10.99 GB   |    Зарегистрирован:  5 лет 11 месяцев   |    .torrent скачан:  44 раза   |   
Раздают:  1  
   
 
Автор Сообщение

Galfimbul

avatar Galfimbul


Синг Стрит / Sing Street
«Boy meets girl. Girl unimpressed. Boy starts band»

Страна: Ирландия, Великобритания, США
Студия: Cosmo Films, Distressed Films, FilmNation Entertainment
Жанр: Драма, мелодрама, комедия, музыка
Год выпуска: 2016
Продолжительность: 01:45:24
Перевод 1: Любительский (многоголосый закадровый) Татьяна Бердинских, Елена Ершова, Денис Коровин, Алексей Никитин, Дмитрий Рыбин
Перевод 2: Одноголосый закадровый М.Яроцкий aka kyberpunk
Субтитры: русские - Перевод песен, русские полные, Английские полные
Оригинальная аудиодорожка: английский
Режиссер: Джон Карни / John Carney

В ролях: Фердия Уолш-Пило, Келли Торнтон, Мария Дойл Кеннеди, Джек Рейнор, Эйден Гиллен, Йен Кенни, Бен Керолан, Перси Чамбурука, Марк МакКенна, Дон Вичерли

Описание: Ностальгическая музыкальная драма о взрослении. Когда экономический кризис 1980-х ударяет по семье Конора, его переводят из престижной частной школы в государственную. Подросток сталкивается с грубостью и невежеством новой среды и, кроме того, влюбляется в недосягаемую красавицу. Желая впечатлить девушку, Конор собирает рок-группу.


Тип релиза: BDRip 1080p
Контейнер: MKV

Видео: AVC (x264), 1920x804 (2.40:1), 11711 kbps, 23.976 fps, [email protected]
Аудио 1: Русский / 48 kHz, AC3, 2 (L,R) ~192 kbps (Multi VoiceOver)
Аудио 2: Русский / 48 kHz, DTS, 3/2 (L,C,R,l,r) + LFE ch, ~1510.00 kbps (by kyberpunk)
Аудио 3: Английский / 48 kHz, DTS, 3/2 (L,C,R,l,r) + LFE ch, ~1510.00 kbps
Субтитры1: Русские - Перевод песен М.Яроцкого aka kyberpunk
Субтитры2: Русские - Перевод песен Pandem и Polmila
Субтитры3: Русские - Перевод Pandem и Polmila
Субтитры4: Русские - Перевод anthonyer
Субтитры5: Английские - полные
Субтитры6: Английские - SDH
Формат субтитров: softsub (SRT)
General
Уникальный идентификатор : 236748150237672885721551170587639511317 (0xB21C0901B1BA7B6C69CF2722A6A97915)
Формат : Matroska
Версия формата : Version 4 / Version 2
Размер файла : 11.0 GiB
Продолжительность : 1 h 45 min
Общий поток : 14.9 Mb/s
Дата кодирования : UTC 2018-03-21 18:15:05
Программа кодирования : mkvmerge v21.0.0 ('Tardigrades Will Inherit The Earth') 64-bit
Библиотека кодирования : libebml v1.3.5 + libmatroska v1.4.8

Video
Идентификатор : 1
Формат : AVC
Формат/Информация : Advanced Video Codec
Профиль формата : [email protected]
Настройки формата : CABAC / 5 Ref Frames
Параметр CABAC формата : Yes
Параметр RefFrames формата : 5 frames
Идентификатор кодека : V_MPEG4/ISO/AVC
Продолжительность : 1 h 45 min
Битрейт : 11.7 Mb/s
Ширина : 1 920 pixels
Высота : 804 pixels
Соотношение сторон : 2.40:1
Режим частоты кадров : Constant
Частота кадров : 23.976 (24000/1001) FPS
Цветовое пространство : YUV
Субдискретизация насыщенности : 4:2:0
Битовая глубина : 8 bits
Тип развёртки : Progressive
Бит/(Пиксели*Кадры) : 0.316
Размер потока : 8.62 GiB (78%)
Библиотека кодирования : x264 core 148 r2705.16 d50a22e VietHD_Custom_64
Настройки программы : cabac=1 / ref=5 / deblock=1:-3:-3 / analyse=0x3:0x133 / me=umh / subme=10 / psy=1 / fade_compensate=0.00 / psy_rd=1.01:0.00 / mixed_ref=1 / me_range=24 / chroma_me=1 / trellis=2 / 8x8dct=1 / cqm=0 / deadzone=21,11 / fast_pskip=0 / chroma_qp_offset=-2 / threads=12 / lookahead_threads=2 / sliced_threads=0 / nr=0 / decimate=0 / interlaced=0 / bluray_compat=0 / constrained_intra=0 / fgo=0 / bframes=7 / b_pyramid=2 / b_adapt=2 / b_bias=0 / direct=3 / weightb=1 / open_gop=0 / weightp=2 / keyint=250 / keyint_min=23 / scenecut=40 / intra_refresh=0 / rc_lookahead=60 / rc=crf / mbtree=0 / crf=19.0000 / qcomp=0.65 / qpmin=0:0:0 / qpmax=69:69:69 / qpstep=4 / vbv_maxrate=62500 / vbv_bufsize=78125 / crf_max=0.0 / nal_hrd=none / filler=0 / ip_ratio=1.30 / pb_ratio=1.20 / aq=3:0.85 / aq-sensitivity=10.00 / aq-factor=1.00:1.00:1.00 / aq2=0 / aq3=0 / zones=1,552,crf=10/913,1459,crf=17/11111,13913,crf=18/14290,15550,crf=18/15906,17002,crf=18/29954,36710,crf=18/46679,58430,crf=18/61103,62423,crf=18/67029,69695,crf=18/79739,80623,crf=18/83500,83836,crf=18/84330,86254,crf=18/95455,98785,crf=18/101286,108740,crf=18/113220,113964,crf=18/119795,127144,crf=18/122393,122510,crf=18/126112,127144,crf=18/127804,139336,crf=18/145648,151643,crf=25
Default : Yes
Forced : No
Цветовой диапазон : Limited
Коэффициенты матрицы : BT.709

Audio #1
Идентификатор : 2
Формат : AC-3
Формат/Информация : Audio Coding 3
Идентификатор кодека : A_AC3
Продолжительность : 1 h 45 min
Вид битрейта : Constant
Битрейт : 192 kb/s
Каналы : 2 channels
Расположение каналов : Front: L R
Частота : 48.0 kHz
Частота кадров : 31.250 FPS (1536 SPF)
Битовая глубина : 16 bits
Метод сжатия : Lossy
Размер потока : 145 MiB (1%)
Заголовок : MVO (multi-voice over)
Язык : Russian
ServiceKind/String : Complete Main
Default : Yes
Forced : No

Audio #2
Идентификатор : 3
Формат : DTS
Формат/Информация : Digital Theater Systems
Идентификатор кодека : A_DTS
Продолжительность : 1 h 45 min
Вид битрейта : Constant
Битрейт : 1 509 kb/s
Каналы : 6 channels
Расположение каналов : Front: L C R, Side: L R, LFE
Частота : 48.0 kHz
Частота кадров : 93.750 FPS (512 SPF)
Битовая глубина : 24 bits
Метод сжатия : Lossy
Размер потока : 1.11 GiB (10%)
Заголовок : VO kyberpunk
Язык : Russian
Default : No
Forced : No

Audio #3
Идентификатор : 4
Формат : DTS
Формат/Информация : Digital Theater Systems
Идентификатор кодека : A_DTS
Продолжительность : 1 h 45 min
Вид битрейта : Constant
Битрейт : 1 509 kb/s
Каналы : 6 channels
Расположение каналов : Front: L C R, Side: L R, LFE
Частота : 48.0 kHz
Частота кадров : 93.750 FPS (512 SPF)
Битовая глубина : 24 bits
Метод сжатия : Lossy
Размер потока : 1.11 GiB (10%)
Язык : English
Default : No
Forced : No

Text #1
Идентификатор : 5
Формат : UTF-8
Идентификатор кодека : S_TEXT/UTF8
Идентификатор кодека/Информация : UTF-8 Plain Text
Продолжительность : 1 h 33 min
Битрейт : 22 b/s
ElementCount : 283
Размер потока : 15.6 KiB (0%)
Заголовок : Перевод песен М.Яроцкого aka kyberpunk
Язык : Russian
Default : Yes
Forced : No

Text #2
Идентификатор : 6
Формат : UTF-8
Идентификатор кодека : S_TEXT/UTF8
Идентификатор кодека/Информация : UTF-8 Plain Text
Продолжительность : 1 h 40 min
Битрейт : 21 b/s
ElementCount : 300
Размер потока : 15.4 KiB (0%)
Заголовок : Перевод песен Pandem и Polmila
Язык : Russian
Default : No
Forced : No

Text #3
Идентификатор : 7
Формат : UTF-8
Идентификатор кодека : S_TEXT/UTF8
Идентификатор кодека/Информация : UTF-8 Plain Text
Продолжительность : 1 h 40 min
Битрейт : 118 b/s
ElementCount : 1875
Размер потока : 87.0 KiB (0%)
Заголовок : Перевод Pandem и Polmila
Язык : Russian
Default : No
Forced : No

Text #4
Идентификатор : 8
Формат : UTF-8
Идентификатор кодека : S_TEXT/UTF8
Идентификатор кодека/Информация : UTF-8 Plain Text
Продолжительность : 1 h 39 min
Битрейт : 92 b/s
ElementCount : 1572
Размер потока : 67.6 KiB (0%)
Заголовок : Перевод anthonyer
Язык : Russian
Default : No
Forced : No

Text #5
Идентификатор : 9
Формат : UTF-8
Идентификатор кодека : S_TEXT/UTF8
Идентификатор кодека/Информация : UTF-8 Plain Text
Продолжительность : 1 h 39 min
Битрейт : 72 b/s
ElementCount : 1872
Размер потока : 52.6 KiB (0%)
Заголовок : Full
Язык : English
Default : No
Forced : No

Text #6
Идентификатор : 10
Формат : UTF-8
Идентификатор кодека : S_TEXT/UTF8
Идентификатор кодека/Информация : UTF-8 Plain Text
Продолжительность : 1 h 44 min
Битрейт : 75 b/s
ElementCount : 2092
Размер потока : 57.9 KiB (0%)
Заголовок : SDH
Язык : English
Default : No
Forced : No

Menu
00:00:00.000 : en:00:00:00.000
00:05:00.967 : en:00:05:00.967
00:09:40.747 : en:00:09:40.747
00:14:58.314 : en:00:14:58.314
00:20:49.707 : en:00:20:49.707
00:26:50.776 : en:00:26:50.776
00:32:27.279 : en:00:32:27.279
00:36:50.583 : en:00:36:50.583
00:43:37.782 : en:00:43:37.782
00:49:09.321 : en:00:49:09.321
00:55:03.050 : en:00:55:03.050
01:00:29.459 : en:01:00:29.459
01:04:38.625 : en:01:04:38.625
01:14:55.783 : en:01:14:55.783
01:20:44.006 : en:01:20:44.006
01:27:05.554 : en:01:27:05.554
01:31:35.907 : en:01:31:35.907
01:36:47.010 : en:01:36:47.010
01:41:17.154 : en:01:41:17.154
x264 [info]: frame I:1314 Avg QP:16.98 size:188882
x264 [info]: frame P:32275 Avg QP:18.71 size:102174
x264 [info]: frame B:118057 Avg QP:19.32 size: 48392
x264 [info]: consecutive B-frames: 2.7% 2.9% 7.5% 9.8% 9.2% 64.3% 2.8% 0.9%
encoded 151646 frames, 6.624 fps, 11711.06 kb/s, 8830.0 MB
x264 [info]: ended at Mon Jul 11 10:46:51 2016
x264 [info]: encoding duration 6:21:35

NOTES
- Fixed dirtyline ,debanding and addboders some frame.


Внимание! AdBlock блокирует показ скриншотов, все вопросы к разработчикам )))
Трекер:  [ 25-Мар-2018 06:30 ]

  

Скачать .torrent

Размер .torrent файла 110 KB


Размер: 10.99 GB
Хэш (hash) релиза: 6313ab8f47506028eebfe789cea5ee3731f66ef8
Подписка на обновления:

Еще никто не оставлял запись к записи скачать торрент Синг Стрит Sing Street . Будь первым!

!Обратная связь