Скачать через торрент Синг Стрит Sing Street Фильм бесплатно в хорошем качестве torrent

Скачивайте на UnionPeer.org фильмы через торрент без регистрации. Новинки кино в хорошем качестве через торрент. На UnionPeer.org можно скачать через торрент фильмы 2014 и 2015 годов. Самые новые фильмы.

Скачать торрент Синг Стрит Sing Street бесплатно через .torrent фильм мультфильм сериал

Статистика раздачи
Размер:  8.05 GB   |    Зарегистрирован:  3 года 11 месяцев   |    .torrent скачан:  6 раз   |   
Раздают:  1  
 

Скачать Синг Стрит / Sing Street (2016) BDRip 1080p от HDReactor | P, A через torrent

 
 
Автор Сообщение

Galfimbul

avatar Galfimbul


Синг Стрит / Sing Street

Год выпуска: 2016
Жанр: Драма, мелодрама, комедия, музыка
Выпущено: Ирландия, Великобритания, США, Cosmo Films, Distressed Films, FilmNation Entertainment
Режиссер: Джон Карни
В ролях: Фердия Уолш-Пило, Келли Торнтон, Мария Дойл Кеннеди, Джек Рейнор, Эйден Гиллен, Йен Кенни, Бен Керолан, Перси Чамбурука, Марк МакКенна, Дон Вичерли

О фильме: Ностальгическая музыкальная драма о взрослении. Когда экономический кризис 1980-х ударяет по семье Конора, его переводят из престижной частной школы в государственную. Подросток сталкивается с грубостью и невежеством новой среды и, кроме того, влюбляется в недосягаемую красавицу. Желая впечатлить девушку, Конор собирает рок-группу.



Продолжительность: 01:45:24
Перевод: Профессиональный закадровый, авторский
Субтитры: Русские, английские

Файл
Качество: BDRip (1080p)
Видео: MPEG-4 AVC, 9452 Кбит/с, 1920x804
Аудио #1: Русский (AC3, 6 ch, 384 Кбит/с) - FocusX
Аудио #2: Русский (AC3, 6 ch, 640 Кбит/с) - М.Яроцкий (kyberpunk)
Аудио #3: Английский (AC3, 6 ch, 448 Кбит/с)
Полное имя : F:8Sing.Street.2016.BDRip.1080p.HDReactor.mkv
Формат : Matroska
Версия формата : Version 2
Размер файла : 8,05 Гбайт
Продолжительность : 1 ч. 45 м.
Общий поток : 10,9 Мбит/сек
Название фильма : ~V ad~
Дата кодирования : UTC 2020-03-01 09:54:37
Программа кодирования : mkvmerge v6.5.0 (''Isn''t she lovely'') built on Oct 20 2013 12:50:05
Библиотека кодирования : libebml v1.3.0 + libmatroska v1.4.1
Обложка : Yes
Attachments : cover.jpg / small_cover.jpg / small_cover_land.jpg / cover.jpg / cover_land.jpg

Видео
Идентификатор : 1
Формат : AVC
Формат/Информация : Advanced Video Codec
Профиль формата : [email protected]
Настройки формата : CABAC / 5 Ref Frames
Параметр CABAC формата : Да
Параметр RefFrames формата : 5 кадров
Идентификатор кодека : V_MPEG4/ISO/AVC
Продолжительность : 1 ч. 45 м.
Битрейт : 9452 Кбит/сек
Ширина : 1920 пикселей
Высота : 804 пикселя
Соотношение сторон : 2,40:1
Режим частоты кадров : Постоянный
Частота кадров : 23,976 (24000/1001) кадра/сек
Цветовое пространство : YUV
Субдискретизация насыщенности : 4:2:0
Битовая глубина : 8 бит
Тип развёртки : Прогрессивная
Бит/(Пиксели*Кадры) : 0.255
Размер потока : 6,80 Гбайт (85%)
Заголовок : ~V~
Библиотека кодирования : x264 core 148 r2705+54 9f484c1 t_mod_Custom [8-bit@all X86_64]
Настройки программы : cabac=1 / ref=5 / deblock=1:-3:-3 / analyse=0x3:0x133 / me=umh / subme=11 / psy=1 / fade_compensate=0.00 / psy_rd=1.05:0.10 / mixed_ref=1 / me_range=32 / chroma_me=1 / trellis=2 / 8x8dct=1 / cqm=0 / deadzone=21,11 / fast_pskip=0 / chroma_qp_offset=-3 / threads=12 / lookahead_threads=1 / sliced_threads=0 / nr=0 / decimate=0 / interlaced=0 / bluray_compat=0 / constrained_intra=0 / fgo=0 / bframes=9 / b_pyramid=2 / b_adapt=2 / b_bias=0 / direct=3 / weightb=1 / open_gop=0 / weightp=2 / keyint=240 / keyint_min=23 / scenecut=40 / intra_refresh=0 / rc=2pass / mbtree=0 / bitrate=9452 / ratetol=1.0 / qcomp=0.60 / qpmin=0:0:0 / qpmax=69:69:69 / qpstep=4 / cplxblur=20.0 / qblur=0.5 / ip_ratio=1.30 / pb_ratio=1.20 / aq=3:0.80 / aq-sensitivity=10.00 / aq-factor=1.00:1.00:1.00 / aq2=0 / aq3=0
Язык : Английский
Default : Да
Forced : Нет

Аудио #1
Идентификатор : 2
Формат : AC-3
Формат/Информация : Audio Coding 3
Коммерческое название : Dolby Digital
Идентификатор кодека : A_AC3
Продолжительность : 1 ч. 45 м.
Вид битрейта : Постоянный
Битрейт : 384 Кбит/сек
Каналы : 6 каналов
Channel layout : L R C LFE Ls Rs
Частота : 48,0 КГц
Частота кадров : 31,250 кадров/сек (1536 SPF)
Битовая глубина : 16 бит
Метод сжатия : С потерями
Размер потока : 290 Мбайт (4%)
Заголовок : MVO[FocusX]
Язык : Русский
Service Kind : Complete Main
Default : Нет
Forced : Нет

Аудио #2
Идентификатор : 3
Формат : AC-3
Формат/Информация : Audio Coding 3
Коммерческое название : Dolby Digital
Идентификатор кодека : A_AC3
Продолжительность : 1 ч. 45 м.
Вид битрейта : Постоянный
Битрейт : 640 Кбит/сек
Каналы : 6 каналов
Channel layout : L R C LFE Ls Rs
Частота : 48,0 КГц
Частота кадров : 31,250 кадров/сек (1536 SPF)
Битовая глубина : 16 бит
Метод сжатия : С потерями
Размер потока : 483 Мбайт (6%)
Заголовок : AVO[М.Яроцкий - kyberpunk]
Язык : Русский
Service Kind : Complete Main
Default : Нет
Forced : Нет

Аудио #3
Идентификатор : 4
Формат : AC-3
Формат/Информация : Audio Coding 3
Коммерческое название : Dolby Digital
Идентификатор кодека : A_AC3
Продолжительность : 1 ч. 45 м.
Вид битрейта : Постоянный
Битрейт : 448 Кбит/сек
Каналы : 6 каналов
Channel layout : L R C LFE Ls Rs
Частота : 48,0 КГц
Частота кадров : 31,250 кадров/сек (1536 SPF)
Битовая глубина : 16 бит
Метод сжатия : С потерями
Размер потока : 338 Мбайт (4%)
Язык : Английский
Service Kind : Complete Main
Default : Нет
Forced : Нет

Текст #1
Идентификатор : 5
Формат : UTF-8
Идентификатор кодека : S_TEXT/UTF8
Идентификатор кодека/Информация : UTF-8 Plain Text
Заголовок : Forced (Перевод песен М.Яроцкого)
Язык : Русский
Default : Да
Forced : Нет

Текст #2
Идентификатор : 6
Формат : UTF-8
Идентификатор кодека : S_TEXT/UTF8
Идентификатор кодека/Информация : UTF-8 Plain Text
Заголовок : Full
Язык : Русский
Default : Нет
Forced : Нет

Текст #3
Идентификатор : 7
Формат : UTF-8
Идентификатор кодека : S_TEXT/UTF8
Идентификатор кодека/Информация : UTF-8 Plain Text
Заголовок : Full
Язык : Английский
Default : Нет
Forced : Нет

Меню
00:00:00.000 : en:Chapter 01
00:05:00.717 : en:Chapter 02
00:09:41.330 : en:Chapter 03
00:14:58.105 : en:Chapter 04
00:20:49.331 : en:Chapter 05
00:26:50.775 : en:Chapter 06
00:32:26.903 : en:Chapter 07
00:36:50.333 : en:Chapter 08
00:43:37.406 : en:Chapter 09
00:49:09.821 : en:Chapter 10
00:55:02.757 : en:Chapter 11
01:00:29.709 : en:Chapter 12
01:04:39.166 : en:Chapter 13
01:08:57.216 : en:Chapter 14
01:14:55.449 : en:Chapter 15
01:20:43.630 : en:Chapter 16
01:27:05.428 : en:Chapter 17
01:31:35.865 : en:Chapter 18
01:36:46.717 : en:Chapter 19
01:41:17.029 : en:Chapter 20
x264 [info]: frame I:1295 Avg QP:16.93 size:197501
x264 [info]: frame P:31542 Avg QP:18.95 size: 86993
x264 [info]: frame B:118809 Avg QP:20.13 size: 37645
Источник http://listRutor.org

Внимание! AdBlock блокирует показ скриншотов, все вопросы к разработчикам )))
Трекер:  [ 01-Мар-2020 13:30 ]

  

Скачать .torrent

Размер .torrent файла 20 KB


Размер: 8.05 GB
Хэш (hash) релиза: 76f88d9fff5d150eda9ce7fe40b68565ff0b3483
Подписка на обновления:

Торренты, похожие на Синг Стрит Sing Street скачать торрент

Форум Название Автор Размер S L Добавлен
Зарубежные фильмы 2016-2019 (Новинки зарубежного кино) ·· Синг Стрит / Sing Street (2016) BDRip | FocusX Galfimbul 15685421161.46 GB 0 0 1583053212

12:00

1-Мар-20

Зарубежные фильмы до 2016 ·· Синг Стрит / Sing Street (Джон Карни / John Carney) [2016, Ирландия, Великобритания, США, драма, мелодрама, комедия, музыка, BDRip 1080p] MVO + VO (kyberpunk) + Sub (Rus, Eng) + Original (Eng) Galfimbul 1180020227210.99 GB 0 0 1521948632

06:30

25-Мар-18

Зарубежные фильмы до 2016 ·· Синг Стрит / Sing Street (Джон Карни / John Carney) [2016, Ирландия, Великобритания, США, драма, мелодрама, комедия, музыка, BDRip 720p] VO (Михаил Яроцкий) + Sub Rus, Eng + Original Eng Galfimbul 82773681967.71 GB 0 0 1490633906

19:58

27-Мар-17

Зарубежные фильмы 2016-2019 (Новинки зарубежного кино) ·· Синг Стрит / Sing Street (Джон Карни) [2016, Ирландия, Великобритания, США, Драма, мелодрама, комедия, музыка, BDRip] VO (Михаил Яроцкий) + Sub Rus Galfimbul 15692985191.46 GB 0 0 1489906553

09:55

19-Мар-17

Еще никто не оставлял запись к записи скачать торрент Синг Стрит Sing Street . Будь первым!

!Обратная связь