Скачать через торрент Ограды Fences Фильм бесплатно в хорошем качестве torrent

Скачивайте на UnionPeer.org фильмы через торрент без регистрации. Новинки кино в хорошем качестве через торрент. На UnionPeer.org можно скачать через торрент фильмы 2014 и 2015 годов. Самые новые фильмы.

Скачать торрент Ограды Fences бесплатно через .torrent фильм мультфильм сериал

Статистика раздачи
Размер:  5.57 GB   |    Зарегистрирован:  6 лет 10 месяцев   |    .torrent скачан:  51 раз   |   
Раздают:  1  
 

Скачать Ограды / Fences (Дензел Вашингтон / Denzel Washington) [2016, США, драма, BDRip 720p] Dub + Sub Rus, Eng + Original Eng через torrent

 
 
Автор Сообщение

Galfimbul

avatar Galfimbul


Ограды / Fences

Страна: США
Студия: Bron Studios, MACRO, Paramount Pictures, Scott Rudin Productions
Жанр: драма
Год выпуска: 2016
Продолжительность: 02:19:16

Перевод: Профессиональный (дублированный)
Cубтитры: Rus, Eng
Оригинальная аудиодорожка: английский

Режиссер: Дензел Вашингтон / Denzel Washington

В ролях: Дензел Вашингтон, Виола Дэвис, Майкелти Уильямсон, Расселл Хорнсби, Саня Сидни, Йован Адепо, Стивен Хендерсон, Туссэн Рафаэль Абессоло, Донтес Джеймс, Кристофер С. Меле

Описание: Бывший бейсболист афро-американского происхождения, теперь собирающий мусор с улиц Питтсбурга, изо всех сил старается обеспечить свою семью в Америке 1950-х, где расовый вопрос все еще остается открытым.



Тип релиза: BDRip 720p
Контейнер: MKV

Видео: MPEG-4 AVC, 4463 Кбит/с, 1280x536, 23,976 fps
Аудио: Rus, AC3, 640 kb/s (6 ch), 48 kHz
Аудио 2: Eng, AC3, 640 kb/s (6 ch), 48 kHz
Формат субтитров: softsub (SRT)
x264 [info]: frame I:1326 Avg QP:13.54 size:126696
x264 [info]: frame P:38166 Avg QP:15.40 size: 44972
x264 [info]: frame B:160257 Avg QP:16.21 size: 17243

Format : Matroska
Format version : Version 4 / Version 2
File size : 5.57 GiB
Duration : 2 h 18 min
Overall bit rate : 5 746 kb/s
Movie name : Ограды. (Tonik)
Encoded date : UTC 2017-04-13 15:06:47
Writing application : mkvmerge v7.1.0 ('Good Love') 64bit built on Jul 27 2014 13:06:55
Writing library : libebml v1.3.0 + libmatroska v1.4.1

Video
ID : 1
Format : AVC
Format/Info : Advanced Video Codec
Format profile : [email protected]
Format settings, CABAC : Yes
Format settings, ReFrames : 12 frames
Codec ID : V_MPEG4/ISO/AVC
Duration : 2 h 18 min
Bit rate : 4 463 kb/s
Width : 1 280 pixels
Height : 536 pixels
Display aspect ratio : 2.40:1
Frame rate mode : Constant
Frame rate : 23.976 (24000/1001) FPS
Color space : YUV
Chroma subsampling : 4:2:0
Bit depth : 8 bits
Scan type : Progressive
Bits/(Pixel*Frame) : 0.271
Stream size : 4.33 GiB (78%)
Writing library : x264 core 148 r2744 b97ae06
Encoding settings : cabac=1 / ref=12 / deblock=1:-3:-3 / analyse=0x3:0x133 / me=tesa / subme=11 / psy=1 / psy_rd=1.03:0.00 / mixed_ref=1 / me_range=32 / chroma_me=1 / trellis=2 / 8x8dct=1 / cqm=0 / deadzone=21,11 / fast_pskip=0 / chroma_qp_offset=-2 / threads=12 / lookahead_threads=3 / sliced_threads=0 / nr=0 / decimate=0 / interlaced=0 / bluray_compat=0 / constrained_intra=0 / bframes=16 / b_pyramid=2 / b_adapt=2 / b_bias=0 / direct=3 / weightb=1 / open_gop=0 / weightp=2 / keyint=250 / keyint_min=23 / scenecut=40 / intra_refresh=0 / rc_lookahead=250 / rc=crf / mbtree=0 / crf=15.6 / qcomp=0.60 / qpmin=0 / qpmax=69 / qpstep=4 / vbv_maxrate=62500 / vbv_bufsize=78125 / crf_max=0.0 / nal_hrd=none / filler=0 / ip_ratio=1.30 / pb_ratio=1.20 / aq=3:0.73 / zones=44,961,crf=15/199596,199707,crf=15
Language : English
Default : Yes
Forced : No
Color range : Limited
Color primaries : BT.709
Transfer characteristics : BT.709
Matrix coefficients : BT.709

Audio #1
ID : 2
Format : AC-3
Format/Info : Audio Coding 3
Format settings, Endianness : Big
Codec ID : A_AC3
Duration : 2 h 18 min
Bit rate mode : Constant
Bit rate : 640 kb/s
Channel(s) : 6 channels
Channel positions : Front: L C R, Side: L R, LFE
Sampling rate : 48.0 kHz
Frame rate : 31.250 FPS (1536 spf)
Bit depth : 16 bits
Compression mode : Lossy
Stream size : 636 MiB (11%)
Language : Russian
Service kind : Complete Main
Default : Yes
Forced : No

Audio #2
ID : 3
Format : AC-3
Format/Info : Audio Coding 3
Format settings, Endianness : Big
Codec ID : A_AC3
Duration : 2 h 18 min
Bit rate mode : Constant
Bit rate : 640 kb/s
Channel(s) : 6 channels
Channel positions : Front: L C R, Side: L R, LFE
Sampling rate : 48.0 kHz
Frame rate : 31.250 FPS (1536 spf)
Bit depth : 16 bits
Compression mode : Lossy
Stream size : 636 MiB (11%)
Language : English
Service kind : Complete Main
Default : No
Forced : No

Text #1
ID : 4
Format : UTF-8
Codec ID : S_TEXT/UTF8
Codec ID/Info : UTF-8 Plain Text
Duration : 1 h 45 min
Bit rate : 0 b/s
Count of elements : 4
Stream size : 173 Bytes (0%)
Title : Forced
Language : Russian
Default : Yes
Forced : No

Text #2
ID : 5
Format : UTF-8
Codec ID : S_TEXT/UTF8
Codec ID/Info : UTF-8 Plain Text
Duration : 2 h 11 min
Bit rate : 138 b/s
Count of elements : 2443
Stream size : 133 KiB (0%)
Language : Russian
Default : No
Forced : No

Text #3
ID : 6
Format : UTF-8
Codec ID : S_TEXT/UTF8
Codec ID/Info : UTF-8 Plain Text
Duration : 2 h 11 min
Bit rate : 102 b/s
Count of elements : 2511
Stream size : 98.8 KiB (0%)
Language : English
Default : No
Forced : No

Text #4
ID : 7
Format : UTF-8
Codec ID : S_TEXT/UTF8
Codec ID/Info : UTF-8 Plain Text
Duration : 2 h 11 min
Bit rate : 105 b/s
Count of elements : 2621
Stream size : 102 KiB (0%)
Title : SDH
Language : English
Default : No
Forced : No

Menu
00:00:00.000 : en:Chapter 1
00:06:38.398 : en:Chapter 2
00:13:45.241 : en:Chapter 3
00:21:06.306 : en:Chapter 4
00:30:06.262 : en:Chapter 5
00:37:17.818 : en:Chapter 6
00:45:10.624 : en:Chapter 7
00:51:49.147 : en:Chapter 8
00:57:56.931 : en:Chapter 9
01:04:59.103 : en:Chapter 10
01:13:11.845 : en:Chapter 11
01:23:34.759 : en:Chapter 12
01:29:57.850 : en:Chapter 13
01:36:18.147 : en:Chapter 14
01:43:13.312 : en:Chapter 15
01:54:28.152 : en:Chapter 16
02:01:40.209 : en:Chapter 17
02:10:13.806 : en:Chapter 18
Замена русской дорожки.

Внимание! AdBlock блокирует показ скриншотов, все вопросы к разработчикам )))
Трекер:  [ 23-Апр-2017 15:00 ]

  

Скачать .torrent

Размер .torrent файла 14 KB


Размер: 5.57 GB
Хэш (hash) релиза: 3069173f6c46d3689e4181e8cbd9f7a4c2a37d5f
Подписка на обновления:

Торренты, похожие на Ограды Fences скачать торрент

Форум Название Автор Размер S L Добавлен
Зарубежные фильмы до 2016 ·%· Ограды / Fences (Дензел Вашингтон / Denzel Washington) [2016, США, Драма, DVD9] R5 Dub + Sub Rus + Original Eng Galfimbul 75352186887.02 GB 0 0 1529411444

15:30

19-Июн-18

Зарубежные фильмы 2016-2019 (Новинки зарубежного кино) ·· Ограды / Fences (Дензел Вашингтон / Denzel Washington) [2016, США, драма, BDRip] Dub + Original Eng + Sub Rus, Eng Galfimbul 31298152442.91 GB 0 0 1510889411

06:30

17-Ноя-17

Трейлеры и дополнительные материалы ·· Ограды / Fences (Дензел Вашингтон / Denzel Washington) [2016, Драма, BDRip 720p] дополнительные материалы Galfimbul 12210867201.14 GB 0 0 1493800057

11:27

3-Май-17

Зарубежные фильмы до 2016 ·· Ограды / Fences (Дензел Вашингтон / Denzel Washington) [2016, США, драма, BDRip 1080p] Dub + Sub Rus, Eng + Original Eng Galfimbul 1530761879314.26 GB 0 0 1492952508

16:01

23-Апр-17

Зарубежные фильмы до 2016 ·· Ограды / Fences (Дензел Вашингтон / Denzel Washington) [2016, США, драма, Blu-ray disc 1080p] Dub (CEE) + Sub Rus, Eng + Original Eng Galfimbul 4768849295244.41 GB 0 0 1492438937

17:22

17-Апр-17

Зарубежные фильмы 2016-2019 (Новинки зарубежного кино) ·· Ограды / Fences (Дензел Вашингтон) [2016, драма, BDRip 720p] Лицензия Galfimbul 68890172636.42 GB 0 0 1492090899

16:41

13-Апр-17

Зарубежные фильмы 2016-2019 (Новинки зарубежного кино) ·· Ограды / Fences (Дензел Вашингтон) [2016, драма, BDRip 1080p] Лицензия Galfimbul 1530796989214.26 GB 0 0 1492090893

16:41

13-Апр-17

Зарубежные фильмы 2016-2019 (Новинки зарубежного кино) ·· Ограды / Fences (Дензел Вашингтон) [2016, драма, Blu-ray 1080p] iTunes Galfimbul 4261375675739.69 GB 0 0 1491801379

08:16

10-Апр-17

Зарубежные фильмы 2016-2019 (Новинки зарубежного кино) ·· Ограды / Fences (Дензел Вашингтон / Denzel Washington) [2016, США, драма, BDRip-AVC] Dub + Original Eng + Sub (Rus, Eng) Galfimbul 22608574552.11 GB 0 0 1491668844

19:27

8-Апр-17

Зарубежные фильмы 2016-2019 (Новинки зарубежного кино) ·· Ограды / Fences (Дензел Вашингтон / Denzel Washington) [2016, США, Драма, HDRip] Dub (iTunes) Galfimbul 22047293442.05 GB 0 0 1491496439

19:33

6-Апр-17

Зарубежные фильмы 2016-2019 (Новинки зарубежного кино) ·· Ограды / Fences (Дензел Вашингтон / Denzel Hayes Washington) [2016, США, Драма, BDRip] Original + Sub Rus Galfimbul 15696244491.46 GB 0 0 1489056991

13:56

9-Мар-17

Зарубежные фильмы 2016-2019 (Новинки зарубежного кино) ·· Ограды / Fences (Дензел Вашингтон) [2016, драма, BDRip 720p] Galfimbul 63017195305.87 GB 0 0 1488870872

10:14

7-Мар-17

Зарубежные фильмы 2016-2019 (Новинки зарубежного кино) ·· Ограды / Fences (Дензел Вашингтон) [2016, драма, BDRip 1080p] Galfimbul 1179547726110.99 GB 0 0 1488870866

10:14

7-Мар-17

Зарубежные фильмы 2016-2019 (Новинки зарубежного кино) ·· Ограды / Fences (Дензел Вашингтон) [2016, драма, HDRip] Galfimbul 14678835201.37 GB 0 0 1488869005

09:43

7-Мар-17

Зарубежные фильмы 2016-2019 (Новинки зарубежного кино) ·· Ограды / Fences (Дензел Вашингтон) [2016, драма, WEB-DLRip 1080р] Galfimbul 57179411455.33 GB 0 0 1488177635

09:40

27-Фев-17

Зарубежные фильмы 2016-2019 (Новинки зарубежного кино) ·· Ограды / Fences (Дензел Вашингтон) [2016, драма, WEB-DLRip] Galfimbul 14673858561.37 GB 0 0 1488177629

09:40

27-Фев-17

Зарубежные фильмы 2016-2019 (Новинки зарубежного кино) ·· Ограды / Fences (Дензел Вашингтон) [2016, драма, WEB-DLRip 720р] Galfimbul 47464818434.42 GB 0 0 1488177623

09:40

27-Фев-17

Зарубежные фильмы 2016-2019 (Новинки зарубежного кино) ·· Ограды / Fences (Дензел Вашингтон) [2016, драма, WEB-DLRip] Galfimbul 22042869762.05 GB 0 0 1488177618

09:40

27-Фев-17

Зарубежные фильмы 2016-2019 (Новинки зарубежного кино) ·· Ограды / Fences (Дензел Вашингтон) [2016, драма, DVDScr] Galfimbul 14670622721.37 GB 0 0 1483681277

08:41

6-Янв-17

Еще никто не оставлял запись к записи скачать торрент Ограды Fences . Будь первым!

!Обратная связь