Скачать через торрент Ограды Fences Фильм бесплатно в хорошем качестве torrent

Скачивайте на UnionPeer.org фильмы через торрент без регистрации. Новинки кино в хорошем качестве через торрент. На UnionPeer.org можно скачать через торрент фильмы 2014 и 2015 годов. Самые новые фильмы.

Скачать торрент Ограды Fences бесплатно через .torrent фильм мультфильм сериал

Статистика раздачи
Размер:  2.91 GB   |    Зарегистрирован:  6 лет 3 месяца   |    .torrent скачан:  46 раз   |   
Раздают:  1  
 

Скачать Ограды / Fences (Дензел Вашингтон / Denzel Washington) [2016, США, драма, BDRip] Dub + Original Eng + Sub Rus, Eng через torrent

 
 
Автор Сообщение

Galfimbul

avatar Galfimbul


Ограды / Fences
Страна: США
Жанр: драма
Год выпуска: 2016
Продолжительность: 02:18:51Перевод: Профессиональный (дублированный)
Субтитры: русские, английские
Оригинальная аудиодорожка: английскаяРежиссер: Дензел Вашингтон / Denzel WashingtonВ ролях: Дензел Вашингтон, Виола Дэвис, Майкелти Уильямсон, Расселл Хорнсби, Саня Сидни, Йован Адепо, Стивен Хендерсон, Туссэн Рафаэль Абессоло, Донтес Джеймс, Кристофер С. МелеОписание: Бывший бейсболист афро-американского происхождения, теперь собирающий мусор с улиц Питтсбурга, изо всех сил старается обеспечить свою семью в Америке 1950-х, где расовый вопрос все еще остается открытым. Качество видео: BDRip / Fences.2016.REMUX.1080p.BluRay.AVC.DTS-HD.MA.7.1-iFT
Формат видео: AVIВидео: XviD build 67, 720x304 (2.35:1), 23.976 fps, ~2094 kbps avg, 0.399 bit/pixel
Аудио 1: 48 kHz, AC3 Dolby Digital, 3/2 (L,C,R,l,r) + LFE ch, ~448 kbps avg
Аудио 2: 48 kHz, AC3 Dolby Digital, 3/2 (L,C,R,l,r) + LFE ch, ~448 kbps avg
Complete name : D:\Раздачи\Ограды (2016) BDRip_ivanes20031987\Ограды (2016) BDRip_ivanes20031987.aviFormat : AVIFormat/Info : Audio Video InterleaveFormat profile : OpenDMLFile size : 2.91 GiBDuration : 2 h 18 minOverall bit rate : 3 005 kb/sWriting application : VirtualDubMod 1.5.10.3 (build 2550/release)Writing library : VirtualDubMod build 2550/release

VideoID : 0Format : MPEG-4 VisualFormat profile : Advanced Simple@L5Format settings, BVOP : 1Format settings, QPel : NoFormat settings, GMC : No warppointsFormat settings, Matrix : CustomCodec ID : XVIDCodec ID/Hint : XviDDuration : 2 h 18 minBit rate : 2 094 kb/sWidth : 720 pixelsHeight : 304 pixelsDisplay aspect ratio : 2.35:1Frame rate : 23.976 (24000/1001) FPSColor space : YUVChroma subsampling : 4:2:0Bit depth : 8 bitsScan type : ProgressiveCompression mode : LossyBits/(Pixel*Frame) : 0.399Stream size : 2.03 GiB (70%)Writing library : XviD 67

Audio #1ID : 1Format : AC-3Format/Info : Audio Coding 3Format settings, Endianness : BigCodec ID : 2000Duration : 2 h 18 minBit rate mode : ConstantBit rate : 448 kb/sChannel(s) : 6 channelsChannel positions : Front: L C R, Side: L R, LFESampling rate : 48.0 kHzFrame rate : 31.250 FPS (1536 SPF)Bit depth : 16 bitsCompression mode : LossyStream size : 445 MiB (15%)Alignment : Split accross interleavesInterleave, duration : 42 ms (1.00 video frame)Interleave, preload duratio : 500 msService kind : Complete Main

Audio #2ID : 2Format : AC-3Format/Info : Audio Coding 3Format settings, Endianness : BigCodec ID : 2000Duration : 2 h 18 minBit rate mode : ConstantBit rate : 448 kb/sChannel(s) : 6 channelsChannel positions : Front: L C R, Side: L R, LFESampling rate : 48.0 kHzFrame rate : 31.250 FPS (1536 SPF)Bit depth : 16 bitsCompression mode : LossyStream size : 445 MiB (15%)Alignment : Split accross interleavesInterleave, duration : 42 ms (1.00 video frame)Interleave, preload duratio : 500 msService kind : Complete Main


Внимание! AdBlock блокирует показ скриншотов, все вопросы к разработчикам )))
Трекер:  [ 17-Ноя-2017 06:30 ]

  

Скачать .torrent

Размер .torrent файла 15 KB


Размер: 2.91 GB
Хэш (hash) релиза: 8bce2e4706e447ab27e189d74c0ec824a105fc6f
Подписка на обновления:

Торренты, похожие на Ограды Fences скачать торрент

Форум Название Автор Размер S L Добавлен
Зарубежные фильмы до 2016 ·%· Ограды / Fences (Дензел Вашингтон / Denzel Washington) [2016, США, Драма, DVD9] R5 Dub + Sub Rus + Original Eng Galfimbul 75352186887.02 GB 0 0 1529411444

15:30

19-Июн-18

Трейлеры и дополнительные материалы ·· Ограды / Fences (Дензел Вашингтон / Denzel Washington) [2016, Драма, BDRip 720p] дополнительные материалы Galfimbul 12210867201.14 GB 0 0 1493800057

11:27

3-Май-17

Зарубежные фильмы до 2016 ·· Ограды / Fences (Дензел Вашингтон / Denzel Washington) [2016, США, драма, BDRip 720p] Dub + Sub Rus, Eng + Original Eng Galfimbul 59834976475.57 GB 0 0 1492952519

16:01

23-Апр-17

Зарубежные фильмы до 2016 ·· Ограды / Fences (Дензел Вашингтон / Denzel Washington) [2016, США, драма, BDRip 1080p] Dub + Sub Rus, Eng + Original Eng Galfimbul 1530761879314.26 GB 0 0 1492952508

16:01

23-Апр-17

Зарубежные фильмы до 2016 ·· Ограды / Fences (Дензел Вашингтон / Denzel Washington) [2016, США, драма, Blu-ray disc 1080p] Dub (CEE) + Sub Rus, Eng + Original Eng Galfimbul 4768849295244.41 GB 0 0 1492438937

17:22

17-Апр-17

Зарубежные фильмы 2016-2019 (Новинки зарубежного кино) ·· Ограды / Fences (Дензел Вашингтон) [2016, драма, BDRip 720p] Лицензия Galfimbul 68890172636.42 GB 0 0 1492090899

16:41

13-Апр-17

Зарубежные фильмы 2016-2019 (Новинки зарубежного кино) ·· Ограды / Fences (Дензел Вашингтон) [2016, драма, BDRip 1080p] Лицензия Galfimbul 1530796989214.26 GB 0 0 1492090893

16:41

13-Апр-17

Зарубежные фильмы 2016-2019 (Новинки зарубежного кино) ·· Ограды / Fences (Дензел Вашингтон) [2016, драма, Blu-ray 1080p] iTunes Galfimbul 4261375675739.69 GB 0 0 1491801379

08:16

10-Апр-17

Зарубежные фильмы 2016-2019 (Новинки зарубежного кино) ·· Ограды / Fences (Дензел Вашингтон / Denzel Washington) [2016, США, драма, BDRip-AVC] Dub + Original Eng + Sub (Rus, Eng) Galfimbul 22608574552.11 GB 0 0 1491668844

19:27

8-Апр-17

Зарубежные фильмы 2016-2019 (Новинки зарубежного кино) ·· Ограды / Fences (Дензел Вашингтон / Denzel Washington) [2016, США, Драма, HDRip] Dub (iTunes) Galfimbul 22047293442.05 GB 0 0 1491496439

19:33

6-Апр-17

Зарубежные фильмы 2016-2019 (Новинки зарубежного кино) ·· Ограды / Fences (Дензел Вашингтон / Denzel Hayes Washington) [2016, США, Драма, BDRip] Original + Sub Rus Galfimbul 15696244491.46 GB 0 0 1489056991

13:56

9-Мар-17

Зарубежные фильмы 2016-2019 (Новинки зарубежного кино) ·· Ограды / Fences (Дензел Вашингтон) [2016, драма, BDRip 720p] Galfimbul 63017195305.87 GB 0 0 1488870872

10:14

7-Мар-17

Зарубежные фильмы 2016-2019 (Новинки зарубежного кино) ·· Ограды / Fences (Дензел Вашингтон) [2016, драма, BDRip 1080p] Galfimbul 1179547726110.99 GB 0 0 1488870866

10:14

7-Мар-17

Зарубежные фильмы 2016-2019 (Новинки зарубежного кино) ·· Ограды / Fences (Дензел Вашингтон) [2016, драма, HDRip] Galfimbul 14678835201.37 GB 0 0 1488869005

09:43

7-Мар-17

Зарубежные фильмы 2016-2019 (Новинки зарубежного кино) ·· Ограды / Fences (Дензел Вашингтон) [2016, драма, WEB-DLRip 1080р] Galfimbul 57179411455.33 GB 0 0 1488177635

09:40

27-Фев-17

Зарубежные фильмы 2016-2019 (Новинки зарубежного кино) ·· Ограды / Fences (Дензел Вашингтон) [2016, драма, WEB-DLRip] Galfimbul 14673858561.37 GB 0 0 1488177629

09:40

27-Фев-17

Зарубежные фильмы 2016-2019 (Новинки зарубежного кино) ·· Ограды / Fences (Дензел Вашингтон) [2016, драма, WEB-DLRip 720р] Galfimbul 47464818434.42 GB 0 0 1488177623

09:40

27-Фев-17

Зарубежные фильмы 2016-2019 (Новинки зарубежного кино) ·· Ограды / Fences (Дензел Вашингтон) [2016, драма, WEB-DLRip] Galfimbul 22042869762.05 GB 0 0 1488177618

09:40

27-Фев-17

Зарубежные фильмы 2016-2019 (Новинки зарубежного кино) ·· Ограды / Fences (Дензел Вашингтон) [2016, драма, DVDScr] Galfimbul 14670622721.37 GB 0 0 1483681277

08:41

6-Янв-17

Еще никто не оставлял запись к записи скачать торрент Ограды Fences . Будь первым!

!Обратная связь