Скачать через торрент Манчестер у моря Manchester by the Sea Фильм бесплатно в хорошем качестве torrent

Скачивайте на UnionPeer.org фильмы через торрент без регистрации. Новинки кино в хорошем качестве через торрент. На UnionPeer.org можно скачать через торрент фильмы 2014 и 2015 годов. Самые новые фильмы.

Скачать торрент Манчестер у моря Manchester by the Sea бесплатно через .torrent фильм мультфильм сериал

Статистика раздачи
Размер:  10.79 GB   |    Зарегистрирован:  6 лет 10 месяцев   |    .torrent скачан:  63 раза   |   
Раздают:  1  
 

Скачать Манчестер у моря / Manchester by the Sea (Кеннет Лонерган / Kenneth Lonergan) [2016, США, драма, BDRip 720p] Dub + Sub Rus, Eng + Original Eng через torrent

 
 
Автор Сообщение

Galfimbul

avatar Galfimbul


Манчестер у моря / Manchester by the Sea

Страна: США
Студия: B Story, Big Indie Pictures, CMP
Жанр: драма
Год выпуска: 2016
Продолжительность: 02:17:32

Перевод: Профессиональный (дублированный)
Cубтитры: Rus, Eng
Оригинальная аудиодорожка: английский

Режиссер: Кеннет Лонерган / Kenneth Lonergan

В ролях: Кейси Аффлек, Бен О'Брайэн, Кайл Чандлер, Ричард Донелли, Virginia Loring Cooke, Куинси Тайлер Бернстайн, Мисси Ягер, Стивен Хендерсон, Бен Хэнсон, Мэри Мэллен

Описание: Ленивый и безответственный сантехник Ли после внезапной смерти брата назначен опекуном своего племянника-подростка. Возвращение в родной город дает новый ход трагедии, сокрытой в его прошлом.



Тип релиза: BDRip 720p
Контейнер: MKV

Видео: MPEG-4 AVC, 9816 Кбит/с, 1280x692, 23,976 fps
Аудио: Rus, DTS, 768 kb/s (6 ch), 48 kHz
Аудио: Eng, AC3, 640 kb/s (6 ch), 48 kHz
Формат субтитров: softsub (SRT)
x264 [info]: frame I:1298 Avg QP:15.53 size:180183
x264 [info]: frame P:35382 Avg QP:17.03 size: 77223
x264 [info]: frame B:161179 Avg QP:17.99 size: 44418

Format : Matroska
Format version : Version 4 / Version 2
File size : 10.8 GiB
Duration : 2 h 17 min
Overall bit rate : 11.2 Mb/s
Movie name : Манчестер у моря. (Tonik)
Encoded date : UTC 2017-04-24 07:54:28
Writing application : mkvmerge v7.1.0 ('Good Love') 64bit built on Jul 27 2014 13:06:55
Writing library : libebml v1.3.0 + libmatroska v1.4.1

Video
ID : 1
Format : AVC
Format/Info : Advanced Video Codec
Format profile : [email protected]
Format settings, CABAC : Yes
Format settings, ReFrames : 9 frames
Codec ID : V_MPEG4/ISO/AVC
Duration : 2 h 17 min
Bit rate : 9 816 kb/s
Width : 1 280 pixels
Height : 692 pixels
Display aspect ratio : 1.85:1
Frame rate mode : Constant
Frame rate : 23.976 (24000/1001) FPS
Color space : YUV
Chroma subsampling : 4:2:0
Bit depth : 8 bits
Scan type : Progressive
Bits/(Pixel*Frame) : 0.462
Stream size : 9.43 GiB (87%)
Writing library : x264 core 148 r2744 b97ae06
Encoding settings : cabac=1 / ref=9 / deblock=1:-3:-3 / analyse=0x3:0x133 / me=tesa / subme=11 / psy=1 / psy_rd=1.03:0.00 / mixed_ref=1 / me_range=32 / chroma_me=1 / trellis=2 / 8x8dct=1 / cqm=0 / deadzone=21,11 / fast_pskip=0 / chroma_qp_offset=-2 / threads=12 / lookahead_threads=3 / sliced_threads=0 / nr=0 / decimate=0 / interlaced=0 / bluray_compat=0 / constrained_intra=0 / bframes=16 / b_pyramid=2 / b_adapt=2 / b_bias=0 / direct=3 / weightb=1 / open_gop=0 / weightp=2 / keyint=250 / keyint_min=23 / scenecut=40 / intra_refresh=0 / rc_lookahead=250 / rc=crf / mbtree=0 / crf=17.2 / qcomp=0.63 / qpmin=0 / qpmax=69 / qpstep=4 / vbv_maxrate=62500 / vbv_bufsize=78125 / crf_max=0.0 / nal_hrd=none / filler=0 / ip_ratio=1.30 / pb_ratio=1.20 / aq=3:0.65 / zones=32,502,crf=15.7/503,975,crf=16.7/14055,14128,crf=16.7/14220,14384,crf=16.7/15441,15574,crf=16.7/15706,16212,crf=16.7/16302,16352,crf=16.7/16435,16531,crf=16.7/18141,18485,crf=16.7/56192,56333,crf=16.2/70838,70981,crf=16.7/78214,78275,crf=16.2/80981,81132,crf=16.7/92350,92499,crf=16.7/123810,123872,crf=16.7/123989,124124,crf=16.7/124641,124731,crf=16.7/124791,124949,crf=16.7/125150,125271,crf=16.7/150325,150677,crf=16.7/152110,152542,crf=16.7/160704,160919,crf=16.7/178384,178460,crf=16.2/178816,179020,crf=16.2/191038,197506,crf=17.5/197506,197833,crf=16.2
Language : English
Default : Yes
Forced : No
Color range : Limited
Color primaries : BT.709
Transfer characteristics : BT.709
Matrix coefficients : BT.709

Audio #1
ID : 2
Format : DTS
Format/Info : Digital Theater Systems
Mode : 16
Format settings, Endianness : Big
Codec ID : A_DTS
Duration : 2 h 17 min
Bit rate mode : Constant
Bit rate : 755 kb/s
Channel(s) : 6 channels
Channel positions : Front: L C R, Side: L R, LFE
Sampling rate : 48.0 kHz
Frame rate : 93.750 FPS (512 spf)
Bit depth : 24 bits
Compression mode : Lossy
Stream size : 755 MiB (7%)
Language : Russian
Default : Yes
Forced : No

Audio #2
ID : 3
Format : AC-3
Format/Info : Audio Coding 3
Format settings, Endianness : Big
Codec ID : A_AC3
Duration : 2 h 17 min
Bit rate mode : Constant
Bit rate : 640 kb/s
Channel(s) : 6 channels
Channel positions : Front: L C R, Side: L R, LFE
Sampling rate : 48.0 kHz
Frame rate : 31.250 FPS (1536 spf)
Bit depth : 16 bits
Compression mode : Lossy
Stream size : 630 MiB (6%)
Language : English
Service kind : Complete Main
Default : No
Forced : No

Text #1
ID : 4
Format : UTF-8
Codec ID : S_TEXT/UTF8
Codec ID/Info : UTF-8 Plain Text
Duration : 1 h 26 min
Bit rate : 1 b/s
Count of elements : 20
Stream size : 806 Bytes (0%)
Title : Forced
Language : Russian
Default : Yes
Forced : No

Text #2
ID : 5
Format : UTF-8
Codec ID : S_TEXT/UTF8
Codec ID/Info : UTF-8 Plain Text
Duration : 2 h 9 min
Bit rate : 92 b/s
Count of elements : 1899
Stream size : 88.2 KiB (0%)
Language : Russian
Default : No
Forced : No

Text #3
ID : 6
Format : UTF-8
Codec ID : S_TEXT/UTF8
Codec ID/Info : UTF-8 Plain Text
Duration : 2 h 9 min
Bit rate : 96 b/s
Count of elements : 1687
Stream size : 91.8 KiB (0%)
Title : Skuf
Language : Russian
Default : No
Forced : No

Text #4
ID : 7
Format : UTF-8
Codec ID : S_TEXT/UTF8
Codec ID/Info : UTF-8 Plain Text
Duration : 2 h 9 min
Bit rate : 62 b/s
Count of elements : 1751
Stream size : 59.6 KiB (0%)
Language : English
Default : No
Forced : No

Menu
00:00:00.000 : en:Chapter 1
00:09:24.189 : en:Chapter 2
00:16:06.465 : en:Chapter 3
00:26:27.336 : en:Chapter 4
00:34:25.230 : en:Chapter 5
00:43:50.336 : en:Chapter 6
00:49:20.541 : en:Chapter 7
00:59:14.551 : en:Chapter 8
01:11:07.889 : en:Chapter 9
01:18:13.856 : en:Chapter 10
01:28:43.818 : en:Chapter 11
01:37:53.993 : en:Chapter 12
01:46:43.314 : en:Chapter 13
01:54:39.289 : en:Chapter 14
02:02:43.273 : en:Chapter 15
02:12:49.962 : en:Chapter 16
Добавил русскую дорожку.

Внимание! AdBlock блокирует показ скриншотов, все вопросы к разработчикам )))
Трекер:  [ 24-Апр-2017 11:00 ]

  

Скачать .torrent

Размер .torrent файла 27 KB


Размер: 10.79 GB
Хэш (hash) релиза: 1fe4ec4d771f3b765d141c95038abb2ec46d03c4
Подписка на обновления:

Торренты, похожие на Манчестер у моря Manchester by the Sea скачать торрент

Форум Название Автор Размер S L Добавлен
Зарубежные фильмы 2016-2019 (Новинки зарубежного кино) ·· Манчестер у моря / Manchester by the Sea (2016) BDRip 720p от NNNB | D, A Galfimbul 74249444116.92 GB 0 0 1581595812

15:10

13-Фев-20

Зарубежные фильмы 2016-2019 (Новинки зарубежного кино) ·%· Манчестер у моря / Manchester by the Sea (2016) WEBRip 2160p от MediaClub | SDR | D Galfimbul 3792877129135.32 GB 0 0 1536151213

15:40

5-Сен-18

Зарубежные фильмы до 2016 ·%· Манчестер у моря / Manchester by the Sea (Кеннет Лонерган / Kenneth Lonergan) [2016, США, Драма, DVD9] R5 Dub + Sub Rus + Original Eng Galfimbul 68808396806.41 GB 0 0 1529411453

15:30

19-Июн-18

Зарубежные фильмы до 2016 ·· Манчестер у моря / Manchester by the Sea (Кеннет Лонерган / Kenneth Lonergan) [2016, США, драма, BDRip 1080p] Dub (Blu-ray EUR), (AVO) Юрий Сербин + Sub Rus, Eng + Original Eng Galfimbul 2556047410523.81 GB 0 0 1496205962

07:46

31-Май-17

Трейлеры и дополнительные материалы ·· Манчестер у Моря / Manchester by the Sea (Кеннет Лонерган / Kenneth Lonergan) [2016, Драма, BDRip 720p] дополнительные материалы Galfimbul 678621604647 MB 0 0 1495370438

15:40

21-Май-17

Зарубежные фильмы до 2016 ·· Манчестер у моря / Manchester by the Sea (Кеннет Лонерган / Kenneth Lonergan) [2016, США, драма, BDRip 1080p] Dub (Blu-ray EUR) + Sub Rus, Eng + Original Eng Galfimbul 2401629814122.37 GB 0 0 1493141385

20:29

25-Апр-17

Зарубежные фильмы до 2016 ·· Манчестер у моря / Manchester by the Sea (Кеннет Лонерган / Kenneth Lonergan) [2016, США, драма, Blu-ray disc 1080p] [EUR] Dub + Sub Rus, Eng + Original Eng Galfimbul 4853830067045.2 GB 0 0 1493086816

05:20

25-Апр-17

Зарубежные фильмы 2016-2019 (Новинки зарубежного кино) ·· Манчестер у моря / Manchester by the Sea (Кеннет Лонерган / Kenneth Lonergan) [2016, США, Драма, BDRip-AVC] Dub + Original (Eng) + Subs (Rus, Eng) Galfimbul 15657552491.46 GB 0 0 1493008368

07:32

24-Апр-17

Зарубежные фильмы 2016-2019 (Новинки зарубежного кино) ·· Манчестер у моря / Manchester by the Sea (Кеннет Лонерган / Kenneth Lonergan) [2016, США, драма, BDRip 720p] Лицензия Galfimbul 1423230896113.25 GB 0 0 1493005910

06:51

24-Апр-17

Зарубежные фильмы 2016-2019 (Новинки зарубежного кино) ·· Манчестер у моря / Manchester by the Sea (Кеннет Лонерган / Kenneth Lonergan) [2016, США, драма, BDRip 1080p] Galfimbul 1196174607511.14 GB 0 0 1488400915

23:41

1-Мар-17

Зарубежные фильмы 2016-2019 (Новинки зарубежного кино) ·· Манчестер у моря / Manchester by the Sea (Кеннет Лонерган / Kenneth Lonergan) [2016, США, драма, HDRip] Galfimbul 14672035841.37 GB 0 0 1488395653

22:14

1-Мар-17

Зарубежные фильмы до 2016 ·· Манчестер у моря / Manchester by the Sea (Кеннет Лонерган / Kenneth Lonergan) [2016, США, драма, BDRip 720p] + Sub Rus, Eng + Original Eng Galfimbul 1078792637610.05 GB 0 0 1487166629

16:50

15-Фев-17

Зарубежные фильмы 2016-2019 (Новинки зарубежного кино) ·· Манчестер у моря / Manchester by the Sea (Кеннет Лонерган) [2016, драма, DVDScr] Galfimbul 22056243202.05 GB 0 0 1485409903

08:51

26-Янв-17

Еще никто не оставлял запись к записи скачать торрент Манчестер у моря Manchester by the Sea . Будь первым!

!Обратная связь