Скачать через торрент Манчестер у моря Manchester by the Sea Фильм бесплатно в хорошем качестве torrent

Скачивайте на UnionPeer.org фильмы через торрент без регистрации. Новинки кино в хорошем качестве через торрент. На UnionPeer.org можно скачать через торрент фильмы 2014 и 2015 годов. Самые новые фильмы.

Скачать торрент Манчестер у моря Manchester by the Sea бесплатно через .torrent фильм мультфильм сериал

Статистика раздачи
Размер:  6.92 GB   |    Зарегистрирован:  4 года   |    .torrent скачан:  31 раз   |   
Раздают:  1  
 

Скачать Манчестер у моря / Manchester by the Sea (2016) BDRip 720p от NNNB | D, A через torrent

 
 
Автор Сообщение

Galfimbul

avatar Galfimbul


Манчестер у моря / Manchester by the Sea
«Find forgiveness. Find hope. Find home»
Русское название: Манчестер у моря
Manchester by the Sea



[b]Год выпуска:
2016
Жанр: драма
Выпущено: США
Режиссер: Кеннет Лонерган
В ролях: Кейси Аффлек , Мишель Уильямс , Кайл Чандлер , Лукас Хеджес , Бен О’Брайэн , С.Дж. Уилсон , Анна Барышников , Гретхен Мол , Хезер Бёрнс , Джэми Теннилл , Ричард Донелли , Вирджиния Лоринг Кук
Перевод: Дублированный, Авторский одноголосый


Сюжет фильма:
Нелюдимый и погруженный в себя Ли работает слесарем в многоквартирном доме. Узнав, что его старший брат умер, Ли возвращается в родной городок. Он вспоминает свою жизнь в этом городе и страшную трагедию, произошедшую с его собственной семьей. Неожиданно он узнает, что в завещании брат указал его опекуном 16-летнего племянника. Через взаимоотношения с подростком Ли пытается найти смысл дальнейшего существования.


Качество: BDRip 720p
Формат: AVC (библиотека кодирования x.264)
Контейнер (Расширение): MKV
Видео: 1280x692, 5336 Кбит/сек, 23,976 кадр/сек, 0,251 Бит/[Пиксели*Кадры]
Аудио №1: русский / AC3 / 5.1 / 48 kHz / 448 kbps / |Дублированный|
Аудио №2: русский / AC3 / 5.1 / 48 kHz / 640 kbps / |Авторский одноголосый, Ю.Сербин|
Аудио №3: английский / AC3 / 5.1 / 48 kHz / 640 kbps /
Субтитры: русские (Forced), русские, английские
Навигация по главам(Чаптеры): есть
Продолжительность: 02:17:21

Автор рипа: Группа:


Format : Matroska
Format version : Version 2
File size : 6.92 GiB
Duration : 2 h 17 min
Overall bit rate : 7 208 kb/s
Movie name : Manchester by the Sea.(2016).BDRip.720p.[denis100]
Encoded date : UTC 2017-05-28 11:10:42
Writing application : mkvmerge v5.8.0 ('No Sleep / Pillow') built on Sep 2 2012 15:37:04
Writing library : libebml v1.2.3 + libmatroska v1.3.0

Video
ID : 1
Format : AVC
Format/Info : Advanced Video Codec
Format profile : [email protected]
Format settings, CABAC : Yes
Format settings, ReFrames : 9 frames
Codec ID : V_MPEG4/ISO/AVC
Duration : 2 h 17 min
Bit rate : 5 336 kb/s
Width : 1 280 pixels
Height : 692 pixels
Display aspect ratio : 1.85:1
Frame rate mode : Constant
Frame rate : 23.976 (24000/1001) FPS
Color space : YUV
Chroma subsampling : 4:2:0
Bit depth : 8 bits
Scan type : Progressive
Bits/(Pixel*Frame) : 0.251
Stream size : 5.12 GiB (74%)
Title : Manchester by the Sea.(2016).BDRip.720p.[denis100]
Writing library : x264 core 148 r2744 b97ae06
Encoding settings : cabac=1 / ref=9 / deblock=1:-3:-3 / analyse=0x3:0x133 / me=umh / subme=11 / psy=1 / psy_rd=1.00:0.10 / mixed_ref=1 / me_range=32 / chroma_me=1 / trellis=2 / 8x8dct=1 / cqm=0 / deadzone=21,11 / fast_pskip=0 / chroma_qp_offset=-3 / threads=6 / lookahead_threads=1 / sliced_threads=0 / nr=0 / decimate=1 / interlaced=0 / bluray_compat=0 / constrained_intra=0 / bframes=16 / b_pyramid=2 / b_adapt=2 / b_bias=0 / direct=3 / weightb=1 / open_gop=0 / weightp=2 / keyint=240 / keyint_min=23 / scenecut=40 / intra_refresh=0 / rc=crf / mbtree=0 / crf=17.3 / qcomp=0.60 / qpmin=0 / qpmax=69 / qpstep=4 / ip_ratio=1.40 / pb_ratio=1.30 / aq=1:0.75
Language : English
Default : Yes
Forced : No

Audio #1
ID : 2
Format : AC-3
Format/Info : Audio Coding 3
Mode extension : CM (complete main)
Format settings, Endianness : Big
Codec ID : A_AC3
Duration : 2 h 17 min
Bit rate mode : Constant
Bit rate : 448 kb/s
Channel(s) : 6 channels
Channel positions : Front: L C R, Side: L R, LFE
Sampling rate : 48.0 kHz
Frame rate : 31.250 FPS (1536 spf)
Compression mode : Lossy
Stream size : 440 MiB (6%)
Title : DUB
Language : Russian
Default : Yes
Forced : No

Audio #2
ID : 3
Format : AC-3
Format/Info : Audio Coding 3
Mode extension : CM (complete main)
Format settings, Endianness : Big
Codec ID : A_AC3
Duration : 2 h 17 min
Bit rate mode : Constant
Bit rate : 640 kb/s
Channel(s) : 6 channels
Channel positions : Front: L C R, Side: L R, LFE
Sampling rate : 48.0 kHz
Frame rate : 31.250 FPS (1536 spf)
Compression mode : Lossy
Stream size : 629 MiB (9%)
Title : AVO, Сербин
Language : Russian
Default : No
Forced : No

Audio #3
ID : 4
Format : AC-3
Format/Info : Audio Coding 3
Mode extension : CM (complete main)
Format settings, Endianness : Big
Codec ID : A_AC3
Duration : 2 h 17 min
Bit rate mode : Constant
Bit rate : 640 kb/s
Channel(s) : 6 channels
Channel positions : Front: L C R, Side: L R, LFE
Sampling rate : 48.0 kHz
Frame rate : 31.250 FPS (1536 spf)
Compression mode : Lossy
Stream size : 629 MiB (9%)
Language : English
Default : No
Forced : No

Text #1
ID : 5
Format : UTF-8
Codec ID : S_TEXT/UTF8
Codec ID/Info : UTF-8 Plain Text
Title : Forced
Language : Russian
Default : Yes
Forced : No

Text #2
ID : 6
Format : UTF-8
Codec ID : S_TEXT/UTF8
Codec ID/Info : UTF-8 Plain Text
Language : Russian
Default : No
Forced : No

Text #3
ID : 7
Format : UTF-8
Codec ID : S_TEXT/UTF8
Codec ID/Info : UTF-8 Plain Text
Language : English
Default : No
Forced : No

Menu
00:00:00.000 : en:Chapter 1
00:03:27.332 : en:Chapter 2
00:16:15.891 : en:Chapter 3
00:26:20.745 : en:Chapter 4
00:34:18.639 : en:Chapter 5
00:45:19.007 : en:Chapter 6
00:53:59.736 : en:Chapter 7
01:04:15.518 : en:Chapter 8
01:11:49.471 : en:Chapter 9
01:20:40.377 : en:Chapter 10
01:28:37.228 : en:Chapter 11
01:34:02.053 : en:Chapter 12
01:39:01.477 : en:Chapter 13
01:45:55.724 : en:Chapter 14
01:50:13.481 : en:Chapter 15
01:54:32.699 : en:Chapter 16
01:58:29.769 : en:Chapter 17
02:02:40.102 : en:Chapter 18
02:07:15.127 : en:Chapter 19
02:12:43.956 : en:Chapter 20

x264 [info]: frame I:1354 Avg QP:15.14 size:162297
x264 [info]: frame P:34790 Avg QP:16.59 size: 60235
x264 [info]: frame B:161444 Avg QP:18.35 size: 20607
x264 [info]: consecutive B-frames: 0.9% 0.4% 1.9% 10.0% 15.7% 53.8% 7.7% 2.0% 1.9% 1.1% 1.1% 0.4% 0.8% 1.1% 0.3% 0.3% 0.7%
Источник http://listRutor.org

Внимание! AdBlock блокирует показ скриншотов, все вопросы к разработчикам )))
Трекер:  [ 13-Фев-2020 15:10 ]

  

Скачать .torrent

Размер .torrent файла 35 KB


Размер: 6.92 GB
Хэш (hash) релиза: fc3fb84e53924389974dabd2bf9c708f72607fe8
Подписка на обновления:

Торренты, похожие на Манчестер у моря Manchester by the Sea скачать торрент

Форум Название Автор Размер S L Добавлен
Зарубежные фильмы 2016-2019 (Новинки зарубежного кино) ·%· Манчестер у моря / Manchester by the Sea (2016) WEBRip 2160p от MediaClub | SDR | D Galfimbul 3792877129135.32 GB 0 0 1536151213

15:40

5-Сен-18

Зарубежные фильмы до 2016 ·%· Манчестер у моря / Manchester by the Sea (Кеннет Лонерган / Kenneth Lonergan) [2016, США, Драма, DVD9] R5 Dub + Sub Rus + Original Eng Galfimbul 68808396806.41 GB 0 0 1529411453

15:30

19-Июн-18

Зарубежные фильмы до 2016 ·· Манчестер у моря / Manchester by the Sea (Кеннет Лонерган / Kenneth Lonergan) [2016, США, драма, BDRip 1080p] Dub (Blu-ray EUR), (AVO) Юрий Сербин + Sub Rus, Eng + Original Eng Galfimbul 2556047410523.81 GB 0 0 1496205962

07:46

31-Май-17

Трейлеры и дополнительные материалы ·· Манчестер у Моря / Manchester by the Sea (Кеннет Лонерган / Kenneth Lonergan) [2016, Драма, BDRip 720p] дополнительные материалы Galfimbul 678621604647 MB 0 0 1495370438

15:40

21-Май-17

Зарубежные фильмы до 2016 ·· Манчестер у моря / Manchester by the Sea (Кеннет Лонерган / Kenneth Lonergan) [2016, США, драма, BDRip 1080p] Dub (Blu-ray EUR) + Sub Rus, Eng + Original Eng Galfimbul 2401629814122.37 GB 0 0 1493141385

20:29

25-Апр-17

Зарубежные фильмы до 2016 ·· Манчестер у моря / Manchester by the Sea (Кеннет Лонерган / Kenneth Lonergan) [2016, США, драма, Blu-ray disc 1080p] [EUR] Dub + Sub Rus, Eng + Original Eng Galfimbul 4853830067045.2 GB 0 0 1493086816

05:20

25-Апр-17

Зарубежные фильмы до 2016 ·· Манчестер у моря / Manchester by the Sea (Кеннет Лонерган / Kenneth Lonergan) [2016, США, драма, BDRip 720p] Dub + Sub Rus, Eng + Original Eng Galfimbul 1158066600410.79 GB 0 0 1493023701

11:48

24-Апр-17

Зарубежные фильмы 2016-2019 (Новинки зарубежного кино) ·· Манчестер у моря / Manchester by the Sea (Кеннет Лонерган / Kenneth Lonergan) [2016, США, Драма, BDRip-AVC] Dub + Original (Eng) + Subs (Rus, Eng) Galfimbul 15657552491.46 GB 0 0 1493008368

07:32

24-Апр-17

Зарубежные фильмы 2016-2019 (Новинки зарубежного кино) ·· Манчестер у моря / Manchester by the Sea (Кеннет Лонерган / Kenneth Lonergan) [2016, США, драма, BDRip 720p] Лицензия Galfimbul 1423230896113.25 GB 0 0 1493005910

06:51

24-Апр-17

Зарубежные фильмы 2016-2019 (Новинки зарубежного кино) ·· Манчестер у моря / Manchester by the Sea (Кеннет Лонерган / Kenneth Lonergan) [2016, США, драма, BDRip 1080p] Galfimbul 1196174607511.14 GB 0 0 1488400915

23:41

1-Мар-17

Зарубежные фильмы 2016-2019 (Новинки зарубежного кино) ·· Манчестер у моря / Manchester by the Sea (Кеннет Лонерган / Kenneth Lonergan) [2016, США, драма, HDRip] Galfimbul 14672035841.37 GB 0 0 1488395653

22:14

1-Мар-17

Зарубежные фильмы до 2016 ·· Манчестер у моря / Manchester by the Sea (Кеннет Лонерган / Kenneth Lonergan) [2016, США, драма, BDRip 720p] + Sub Rus, Eng + Original Eng Galfimbul 1078792637610.05 GB 0 0 1487166629

16:50

15-Фев-17

Зарубежные фильмы 2016-2019 (Новинки зарубежного кино) ·· Манчестер у моря / Manchester by the Sea (Кеннет Лонерган) [2016, драма, DVDScr] Galfimbul 22056243202.05 GB 0 0 1485409903

08:51

26-Янв-17

Еще никто не оставлял запись к записи скачать торрент Манчестер у моря Manchester by the Sea . Будь первым!

!Обратная связь