Скачать через торрент Манчестер у моря Manchester by the Sea Фильм бесплатно в хорошем качестве torrent

Скачивайте на UnionPeer.org фильмы через торрент без регистрации. Новинки кино в хорошем качестве через торрент. На UnionPeer.org можно скачать через торрент фильмы 2014 и 2015 годов. Самые новые фильмы.

Скачать торрент Манчестер у моря Manchester by the Sea бесплатно через .torrent фильм мультфильм сериал

Статистика раздачи
Размер:  22.37 GB   |    Зарегистрирован:  6 лет 10 месяцев   |    .torrent скачан:  56 раз   |   
Раздают:  1  
 

Скачать Манчестер у моря / Manchester by the Sea (Кеннет Лонерган / Kenneth Lonergan) [2016, США, драма, BDRip 1080p] Dub (Blu-ray EUR) + Sub Rus, Eng + Original Eng через torrent

 
 
Автор Сообщение

Galfimbul

avatar Galfimbul



Манчестер у моря / Manchester by the Sea
«Find forgiveness. Find hope. Find home»


Страна: США
Студия: B Story, Big Indie Pictures, CMP
Жанр: драма
Год выпуска: 2016
Продолжительность: 02:17:21
Перевод: Профессиональный (дублированный) Blu-ray EUR
Cубтитры: русские (Forced, Blu-ray EUR), русские (Blu-ray EUR), русские (Skuf) английские , английские (SDH)
Оригинальная аудиодорожка: английский
Режиссер: Кеннет Лонерган / Kenneth Lonergan
В ролях: Кейси Аффлек, Мишель Уильямс, Кайл Чандлер, Лукас Хеджес, Бен О’Брайэн, Ричард Донелли, Вирджиния Лоринг Кук, Куинси Тайлер Бернстайн, Мисси Ягер, Стивен Хендерсон

Описание: Нелюдимый и погруженный в себя Ли работает слесарем в многоквартирном доме. Узнав, что его старший брат умер, Ли возвращается в родной городок. Он вспоминает свою жизнь в этом городе и страшную трагедию, произошедшую с его собственной семьей. Неожиданно он узнает, что в завещании брат указал его опекуном 16-летнего племянника. Через взаимоотношения с подростком Ли пытается найти смысл дальнейшего существования.
| Сэмпл | IMDB | КиноПоиск |

Рип от DON!
Тип релиза: BDRip 1080p
Контейнер: MKV

Видео: 1920x1038 (OAR) at 23.976 fps, x264, ~18.9 Mbps avg
Аудио: Russian: 48 kHz, DTS, 3/2 (L,C,R,l,r) + LFE ch, ~768.00 kbps avg |Дубляж, Blu-ray EUR|
Аудио 2: Ukrainian: 48 kHz, DTS, 3/2 (L,C,R,l,r) + LFE ch, ~1536.00 kbps avg |Многоголосый закадровый, студия «Омикрон»|
Аудио 3: English: 48 kHz, DTS, 3/2 (L,C,R,l,r) + LFE ch, ~1536.00 kbps avg
Аудио 4: English: 48 kHz, AC3, 2/0 (L,R) ch, ~192.00 kbps avg |A Conversation with Director / Writer Kenneth Lonergan|
Формат субтитров: softsub (SRT)
Общее
Уникальный идентификатор : 194315513608143568760667270625920677796 (0x922FCE7F6A1C61CF9119EEB465EDF7A4)
Полное имя : D:\torrents\Manchester.by.the.Sea.2016.1080p.BluRay.DTS.Rus.Ukr.2xEng.3xRusSub.2xEngSub.HDCLUB.mkv
Формат : Matroska
Версия формата : Version 4 / Version 2
Размер файла : 22,4 Гбайт
Продолжительность : 2 ч. 17 м.
Общий поток : 23,3 Мбит/сек
Название фильма : Manchester by the Sea (2016)
Дата кодирования : UTC 2017-04-25 16:40:39
Программа кодирования : mkvmerge v6.0.0 ('Coming Up For Air') built on Jan 20 2013 09:52:00
Библиотека кодирования : libebml v1.3.0 + libmatroska v1.4.0
Обложка : Yes
Attachments : Cover.png

Видео
Идентификатор : 1
Формат : AVC
Формат/Информация : Advanced Video Codec
Профиль формата : [email protected]
Параметр CABAC формата : Да
Параметр ReFrames формата : 4 кадра
Идентификатор кодека : V_MPEG4/ISO/AVC
Продолжительность : 2 ч. 17 м.
Битрейт : 18,9 Мбит/сек
Ширина : 1920 пикселей
Высота : 1038 пикселей
Соотношение сторон : 1,85:1
Режим частоты кадров : Постоянный
Частота кадров : 23,976 (24000/1001) кадра/сек
Цветовое пространство : YUV
Субдискретизация насыщенности : 4:2:0
Битовая глубина : 8 бит
Тип развёртки : Прогрессивная
Бит/(Пиксели*Кадры) : 0.395
Размер потока : 18,1 Гбайт (81%)
Заголовок : Manchester by the Sea (2016)
Библиотека кодирования : x264 core 148 r2705+54 9f484c1 t_mod_Custom [8-bit@all X86_64]
Настройки программы : cabac=1 / ref=4 / deblock=1:-3:-3 / analyse=0x3:0x133 / me=umh / subme=11 / psy=1 / fade_compensate=0.00 / psy_rd=1.05:0.00 / mixed_ref=1 / me_range=32 / chroma_me=1 / trellis=2 / 8x8dct=1 / cqm=0 / deadzone=21,11 / fast_pskip=0 / chroma_qp_offset=-2 / threads=12 / lookahead_threads=2 / sliced_threads=0 / nr=0 / decimate=0 / interlaced=0 / bluray_compat=0 / constrained_intra=0 / fgo=0 / bframes=9 / b_pyramid=2 / b_adapt=2 / b_bias=0 / direct=3 / weightb=1 / open_gop=0 / weightp=2 / keyint=250 / keyint_min=23 / scenecut=40 / intra_refresh=0 / rc_lookahead=60 / rc=crf / mbtree=0 / crf=20.1000 / qcomp=0.65 / qpmin=0:0:0 / qpmax=69:69:69 / qpstep=4 / vbv_maxrate=62500 / vbv_bufsize=78125 / crf_max=0.0 / nal_hrd=none / filler=0 / ip_ratio=1.30 / pb_ratio=1.20 / aq=3:0.80 / aq-sensitivity=10.00 / aq-factor=1.00:1.00:1.00 / aq2=0 / aq3=0 / zones=35,502,crf=17/509,975,crf=18/2042,2067,crf=17/56191,56333,crf=17/57701,57855,crf=17/78214,78275,crf=18/80381,80908,crf=18/107203,107298,crf=19/109474,109610,crf=19/112145,112246,crf=19/123989,124124,crf=18/124641,124731,crf=18/124791,124949,crf=18/125150,125271,crf=18/144176,145628,crf=18.5/151658,152109,crf=18/173840,173943,crf=18/178384,178460,crf=18/190860,191036,crf=17/191406,191450,crf=18/195220,195265,crf=18/195290,197500,crf=24/197715,197833,crf=17
Язык : English
Default : Да
Forced : Нет
Цветовой диапазон : Limited
Коэффициенты матрицы : BT.709

Аудио #1
Идентификатор : 2
Формат : DTS
Формат/Информация : Digital Theater Systems
Режим : 16
Параметр Endianness формата : Big
Идентификатор кодека : A_DTS
Продолжительность : 2 ч. 17 м.
Вид битрейта : Постоянный
Битрейт : 755 Кбит/сек
Каналы : 6 каналов
Расположение каналов : Front: L C R, Side: L R, LFE
Частота : 48,0 КГц
Частота кадров : 93,750 кадра/сек (512 spf)
Битовая глубина : 24 бит
Метод сжатия : С потерями
Размер потока : 742 Мбайт (3%)
Заголовок : DTS 5.1 @ 768 kbps - DUB, Blu-ray EUR
Язык : Russian
Default : Да
Forced : Нет

Аудио #2
Идентификатор : 3
Формат : DTS
Формат/Информация : Digital Theater Systems
Режим : 16
Параметр Endianness формата : Big
Идентификатор кодека : A_DTS
Продолжительность : 2 ч. 17 м.
Вид битрейта : Постоянный
Битрейт : 1509 Кбит/сек
Каналы : 6 каналов
Расположение каналов : Front: L C R, Side: L R, LFE
Частота : 48,0 КГц
Частота кадров : 93,750 кадра/сек (512 spf)
Битовая глубина : 24 бит
Метод сжатия : С потерями
Размер потока : 1,45 Гбайт (6%)
Заголовок : DTS 5.1 @ 1536 kbps - MVO, OMiCRON
Язык : Ukrainian
Default : Нет
Forced : Нет

Аудио #3
Идентификатор : 4
Формат : DTS
Формат/Информация : Digital Theater Systems
Режим : 16
Параметр Endianness формата : Big
Идентификатор кодека : A_DTS
Продолжительность : 2 ч. 17 м.
Вид битрейта : Постоянный
Битрейт : 1510 Кбит/сек
Каналы : 6 каналов
Расположение каналов : Front: L C R, Side: L R, LFE
Частота : 48,0 КГц
Частота кадров : 93,750 кадра/сек (512 spf)
Битовая глубина : 24 бит
Метод сжатия : С потерями
Размер потока : 1,45 Гбайт (6%)
Заголовок : DTS 5.1 @ 1536 kbps
Язык : English
Default : Нет
Forced : Нет

Аудио #4
Идентификатор : 5
Формат : AC-3
Формат/Информация : Audio Coding 3
Параметр Endianness формата : Big
Идентификатор кодека : A_AC3
Продолжительность : 2 ч. 17 м.
Вид битрейта : Постоянный
Битрейт : 192 Кбит/сек
Каналы : 2 канала
Расположение каналов : Front: L R
Частота : 48,0 КГц
Частота кадров : 31,250 кадров/сек (1536 spf)
Битовая глубина : 16 бит
Метод сжатия : С потерями
Размер потока : 189 Мбайт (1%)
Заголовок : AC3 2.0 @ 192 kbps - A Conversation with Director / Writer Kenneth Lonergan
Язык : English
ServiceKind/String : Complete Main
Default : Нет
Forced : Нет

Текст #1
Идентификатор : 6
Формат : UTF-8
Идентификатор кодека : S_TEXT/UTF8
Идентификатор кодека/Информация : UTF-8 Plain Text
Заголовок : Forced, Blu-ray EUR
Язык : Russian
Default : Да
Forced : Нет

Текст #2
Идентификатор : 7
Формат : UTF-8
Идентификатор кодека : S_TEXT/UTF8
Идентификатор кодека/Информация : UTF-8 Plain Text
Заголовок : Blu-ray EUR
Язык : Russian
Default : Нет
Forced : Нет

Текст #3
Идентификатор : 8
Формат : UTF-8
Идентификатор кодека : S_TEXT/UTF8
Идентификатор кодека/Информация : UTF-8 Plain Text
Заголовок : Skuf
Язык : Russian
Default : Нет
Forced : Нет

Текст #4
Идентификатор : 9
Формат : UTF-8
Идентификатор кодека : S_TEXT/UTF8
Идентификатор кодека/Информация : UTF-8 Plain Text
Заголовок : SDH
Язык : English
Default : Нет
Forced : Нет

Текст #5
Идентификатор : 10
Формат : UTF-8
Идентификатор кодека : S_TEXT/UTF8
Идентификатор кодека/Информация : UTF-8 Plain Text
Язык : English
Default : Нет
Forced : Нет

Меню
00:00:00.000 : en:Chapter 1
00:09:24.189 : en:Chapter 2
00:16:06.465 : en:Chapter 3
00:26:27.336 : en:Chapter 4
00:34:25.230 : en:Chapter 5
00:43:50.336 : en:Chapter 6
00:49:20.541 : en:Chapter 7
00:59:14.551 : en:Chapter 8
01:11:07.889 : en:Chapter 9
01:18:13.856 : en:Chapter 10
01:28:43.818 : en:Chapter 11
01:37:53.993 : en:Chapter 12
01:46:43.314 : en:Chapter 13
01:54:39.289 : en:Chapter 14
02:02:43.273 : en:Chapter 15
02:12:49.962 : en:Chapter 16
Раздача обновлена 25/04/17

Внимание! AdBlock блокирует показ скриншотов, все вопросы к разработчикам )))
Трекер:  [ 25-Апр-2017 19:30 ]

  

Скачать .torrent

Размер .torrent файла 56 KB


Размер: 22.37 GB
Хэш (hash) релиза: 1e4378263fe7032a6540afbf80f02f38b4926a97
Подписка на обновления:

Торренты, похожие на Манчестер у моря Manchester by the Sea скачать торрент

Форум Название Автор Размер S L Добавлен
Зарубежные фильмы 2016-2019 (Новинки зарубежного кино) ·· Манчестер у моря / Manchester by the Sea (2016) BDRip 720p от NNNB | D, A Galfimbul 74249444116.92 GB 0 0 1581595812

15:10

13-Фев-20

Зарубежные фильмы 2016-2019 (Новинки зарубежного кино) ·%· Манчестер у моря / Manchester by the Sea (2016) WEBRip 2160p от MediaClub | SDR | D Galfimbul 3792877129135.32 GB 0 0 1536151213

15:40

5-Сен-18

Зарубежные фильмы до 2016 ·%· Манчестер у моря / Manchester by the Sea (Кеннет Лонерган / Kenneth Lonergan) [2016, США, Драма, DVD9] R5 Dub + Sub Rus + Original Eng Galfimbul 68808396806.41 GB 0 0 1529411453

15:30

19-Июн-18

Зарубежные фильмы до 2016 ·· Манчестер у моря / Manchester by the Sea (Кеннет Лонерган / Kenneth Lonergan) [2016, США, драма, BDRip 1080p] Dub (Blu-ray EUR), (AVO) Юрий Сербин + Sub Rus, Eng + Original Eng Galfimbul 2556047410523.81 GB 0 0 1496205962

07:46

31-Май-17

Трейлеры и дополнительные материалы ·· Манчестер у Моря / Manchester by the Sea (Кеннет Лонерган / Kenneth Lonergan) [2016, Драма, BDRip 720p] дополнительные материалы Galfimbul 678621604647 MB 0 0 1495370438

15:40

21-Май-17

Зарубежные фильмы до 2016 ·· Манчестер у моря / Manchester by the Sea (Кеннет Лонерган / Kenneth Lonergan) [2016, США, драма, Blu-ray disc 1080p] [EUR] Dub + Sub Rus, Eng + Original Eng Galfimbul 4853830067045.2 GB 0 0 1493086816

05:20

25-Апр-17

Зарубежные фильмы до 2016 ·· Манчестер у моря / Manchester by the Sea (Кеннет Лонерган / Kenneth Lonergan) [2016, США, драма, BDRip 720p] Dub + Sub Rus, Eng + Original Eng Galfimbul 1158066600410.79 GB 0 0 1493023701

11:48

24-Апр-17

Зарубежные фильмы 2016-2019 (Новинки зарубежного кино) ·· Манчестер у моря / Manchester by the Sea (Кеннет Лонерган / Kenneth Lonergan) [2016, США, Драма, BDRip-AVC] Dub + Original (Eng) + Subs (Rus, Eng) Galfimbul 15657552491.46 GB 0 0 1493008368

07:32

24-Апр-17

Зарубежные фильмы 2016-2019 (Новинки зарубежного кино) ·· Манчестер у моря / Manchester by the Sea (Кеннет Лонерган / Kenneth Lonergan) [2016, США, драма, BDRip 720p] Лицензия Galfimbul 1423230896113.25 GB 0 0 1493005910

06:51

24-Апр-17

Зарубежные фильмы 2016-2019 (Новинки зарубежного кино) ·· Манчестер у моря / Manchester by the Sea (Кеннет Лонерган / Kenneth Lonergan) [2016, США, драма, BDRip 1080p] Galfimbul 1196174607511.14 GB 0 0 1488400915

23:41

1-Мар-17

Зарубежные фильмы 2016-2019 (Новинки зарубежного кино) ·· Манчестер у моря / Manchester by the Sea (Кеннет Лонерган / Kenneth Lonergan) [2016, США, драма, HDRip] Galfimbul 14672035841.37 GB 0 0 1488395653

22:14

1-Мар-17

Зарубежные фильмы до 2016 ·· Манчестер у моря / Manchester by the Sea (Кеннет Лонерган / Kenneth Lonergan) [2016, США, драма, BDRip 720p] + Sub Rus, Eng + Original Eng Galfimbul 1078792637610.05 GB 0 0 1487166629

16:50

15-Фев-17

Зарубежные фильмы 2016-2019 (Новинки зарубежного кино) ·· Манчестер у моря / Manchester by the Sea (Кеннет Лонерган) [2016, драма, DVDScr] Galfimbul 22056243202.05 GB 0 0 1485409903

08:51

26-Янв-17

Еще никто не оставлял запись к записи скачать торрент Манчестер у моря Manchester by the Sea . Будь первым!

!Обратная связь