Скачать через торрент Ла-Ла Ленд La La Land Фильм бесплатно в хорошем качестве torrent

Скачивайте на UnionPeer.org фильмы через торрент без регистрации. Новинки кино в хорошем качестве через торрент. На UnionPeer.org можно скачать через торрент фильмы 2014 и 2015 годов. Самые новые фильмы.

Скачать торрент Ла-Ла Ленд La La Land бесплатно через .torrent фильм мультфильм сериал

Статистика раздачи
Размер:  17.8 GB   |    Зарегистрирован:  6 лет 10 месяцев   |    .torrent скачан:  127 раз   |   
Раздают:  1  
 

Скачать Ла-Ла Ленд / La La Land (Дэмьен Шазелл / Damien Chazelle) [2016, США, мюзикл, драма, мелодрама, комедия, музыка, BDRip 1080p] Dub (iTunes) + Sub (Eng) + Original (Eng) через torrent

 
 
Автор Сообщение

Galfimbul

avatar Galfimbul


Ла-Ла Ленд / La La Land

Страна: США
Студия: Black Label Media
Жанр: мюзикл, драма, мелодрама, комедия, музыка
Год выпуска: 2016
Продолжительность: 02:07:48

Перевод: Профессиональный (дублированный) iTunes
Cубтитры: Русские (форсированные на песни и надписи), Английские
Оригинальная аудиодорожка: английский

Режиссер: Дэмьен Шазелл / Damien Chazelle

В ролях: Райан Гослинг, Эмма Стоун, Джон Ледженд, Дж.К. Симмонс, Розмари ДеУитт, Финн Уиттрок, Калли Эрнандес, Соноя Мидзуно, Джессика Рот, Том Эверетт Скотт

Описание: Это история любви старлетки, которая между прослушиваниями подает кофе состоявшимся кинозвездам, и фанатичного джазового музыканта, вынужденного подрабатывать в заштатных барах. Но пришедший к влюбленным успех начинает подтачивать их отношения.



<div class="post-box">Скачать сэмпл</div>

Обладатель 6 премий «ОСКАР» за Лучшую женскую роль (Эмма Стоун), Лучшего режиссера (Дэмьен Шазелл), Лучшую работу оператора, Лучшую песню — «City of Stars», Лучший саундтрек и Лучшую работу художника-постановщика, 2017 г.

Тип релиза: BDRip 1080p
Контейнер: MKV

Видео: MPEG-4 AVC, 17,8 Мбит/с, 1920x754, 23,976 fps
Аудио: Rus, AC3, 384 kb/s (6 ch), 48 kHz
Аудио 2: Eng, DTS-ES, 1536 kb/s (7 ch), 48 kHz
Аудио 3: Eng, AС3, 224 kb/s (2 ch), 48 kHz - комментарии Damien Chazelle и Justin Hurwitz
x264 [info]: frame I:990 Avg QP:14.04 size:224360
x264 [info]: frame P:34736 Avg QP:15.86 size:137379
x264 [info]: frame B:148125 Avg QP:17.19 size: 81559
x264 [info]: consecutive B-frames: 1.1% 1.1% 4.2% 12.2% 19.2% 42.4% 8.1% 2.5% 3.3% 3.3% 2.7%



<div class="post-box">Notes

Debanded/deblocked and zoned 67 scenes.
Left 1 pixel black line at the top because it's unnoticeable in playback as opposed to fixing it.
</div>
ОбщееУникальный идентификатор : 217164691331294753596093954794104327116 (0xA36065EFC53592C69D5AC69256F88BCC)Полное имя : La.La.Land.2016.BDRip.1080p.Secrets.mkvФормат : MatroskaВерсия формата : Version 4 / Version 2Размер файла : 17,8 ГбайтПродолжительность : 2 ч. 8 м.Общий поток : 19,9 Мбит/секНазвание фильма : La La Land [2016] - Release for Rutracker.org by SecretsДата кодирования : UTC 2017-04-20 13:48:25Программа кодирования : mkvmerge v10.0.0 ('To Drown In You') 64bitБиблиотека кодирования : libebml v1.3.4 + libmatroska v1.4.5

ВидеоИдентификатор : 1Формат : AVCФормат/Информация : Advanced Video CodecПрофиль формата : [email protected]Параметр CABAC формата : ДаПараметр ReFrames формата : 5 кадровИдентификатор кодека : V_MPEG4/ISO/AVCПродолжительность : 2 ч. 7 м.Битрейт : 17,8 Мбит/секШирина : 1920 пикселейВысота : 754 пикселяСоотношение сторон : 2,546Режим частоты кадров : ПостоянныйЧастота кадров : 23,976 (24000/1001) кадра/секЦветовое пространство : YUVСубдискретизация насыщенности : 4:2:0Битовая глубина : 8 битТип развёртки : ПрогрессивнаяБит/(Пиксели*Кадры) : 0.513Размер потока : 15,9 Гбайт (89%)Заголовок : La La Land [2016] - Release for Rutracker.org by SecretsБиблиотека кодирования : x264 core 148 r2762+56 6284cf3 t_mod_Custom [8-bit@all X86_64]Настройки программы : cabac=1 / ref=5 / deblock=1:-3:-3 / analyse=0x3:0x133 / me=umh / subme=11 / psy=1 / fade_compensate=0.00 / psy_rd=1.10:0.00 / mixed_ref=1 / me_range=32 / chroma_me=1 / trellis=2 / 8x8dct=1 / cqm=0 / deadzone=21,11 / fast_pskip=0 / chroma_qp_offset=-2 / threads=6 / lookahead_threads=1 / sliced_threads=0 / nr=0 / decimate=0 / interlaced=0 / bluray_compat=0 / constrained_intra=0 / fgo=0 / bframes=10 / b_pyramid=2 / b_adapt=2 / b_bias=0 / direct=3 / weightb=1 / open_gop=0 / weightp=2 / keyint=240 / keyint_min=23 / scenecut=40 / intra_refresh=0 / rc_lookahead=240 / rc=crf / mbtree=0 / crf=17.3000 / qcomp=0.65 / qpmin=0:0:0 / qpmax=69:69:69 / qpstep=4 / vbv_maxrate=62500 / vbv_bufsize=78125 / crf_max=0.0 / nal_hrd=none / filler=0 / ip_ratio=1.30 / pb_ratio=1.20 / aq=3:0.77 / aq-sensitivity=15.00 / aq-factor=1.00:1.00:1.00 / aq2=0 / aq3=0 / zones=1129,2194,crf=15.0/3334,3370,crf=15.0/4673,5077,crf=15.0/8602,8640,crf=15.0/9801,9935,crf=15.0/10004,10127,crf=15.0/10158,10235,crf=15.0/12876,12921,crf=15.0/12946,12977,crf=15.0/13379,13775,crf=15.0/15702,15880,crf=15.0/16277,16395,crf=15.0/18457,18533,crf=15.0/18738,18798,crf=15.0/19084,19153,crf=15.0/19406,19825,crf=15.0/20358,20938,crf=15.0/33061,33236,crf=15.0/35835,35908,crf=15.0/36050,36751,crf=15.0/36928,37159,crf=15.0/43728,43931,crf=15.0/43996,44014,crf=15.0/59905,59950,crf=15.0/74862,74913,crf=15.0/75800,76092,crf=15.0/76161,76271,crf=15.0/76342,76685,crf=15.0/77019,77418,crf=15.0/77530,77594,crf=15.0/77643,77987,crf=15.0/78052,78091,crf=15.0/78976,79121,crf=15.0/84794,84900,crf=15.0/87336,87612,crf=15.0/87869,88107,crf=15.0/89615,89861,crf=15.0/89973,90027,crf=15.0/90061,90074,crf=15.0/90868,93692,crf=15.0/106280,106386,crf=15.0/106621,106791,crf=15.0/107100,107157,crf=15.0/107247,107267,crf=15.0/107418,107468,crf=15.0/107574,107667,crf=15.0/109187,109544,crf=15.0/123002,123866,crf=15.0/124215,124297,crf=15.0/124436,124559,crf=15.0/124691,124729,crf=15.0/124822,124934,crf=15.0/125131,125229,crf=15.0/128020,128101,crf=15.0/128153,128199,crf=15.0/130587,130627,crf=15.0/133421,133469,crf=15.0/134696,134774,crf=15.0/137001,137156,crf=15.0/137218,137280,crf=15.0/153256,153682,crf=15.0/159052,159490,crf=15.0/163351,163458,crf=15.0/163837,164063,crf=15.0/164434,164475,crf=15.0/164877,164897,crf=15.0/168552,168684,crf=15.0/172589,183640,crf=21Язык : EnglishDefault : ДаForced : Нет

Аудио #1Идентификатор : 2Формат : AC-3Формат/Информация : Audio Coding 3Расширение режима : CM (complete main)Параметр Endianness формата : BigИдентификатор кодека : A_AC3Продолжительность : 2 ч. 8 м.Вид битрейта : ПостоянныйБитрейт : 384 Кбит/секКаналы : 6 каналовРасположение каналов : Front: L C R, Side: L R, LFEЧастота : 48,0 КГцЧастота кадров : 31,250 кадров/сек (1536 spf)Метод сжатия : С потерямиРазмер потока : 352 Мбайт (2%)Заголовок : iTunesЯзык : RussianDefault : ДаForced : Нет

Аудио #2Идентификатор : 3Формат : DTSФормат/Информация : Digital Theater SystemsПрофиль формата : ES Discrete / CoreРежим : 16Параметр Endianness формата : BigИдентификатор кодека : A_DTSПродолжительность : 2 ч. 7 м.Вид битрейта : ПостоянныйБитрейт : 1509 Кбит/секКаналы : 7 каналов / 6 каналовРасположение каналов : Front: L C R, Side: L R, Back: C, LFE / Front: L C R, Side: L R, LFEЧастота : 48,0 КГцЧастота кадров : 93,750 кадра/сек (512 spf)Битовая глубина : 24 битМетод сжатия : С потерямиРазмер потока : 1,35 Гбайт (8%)Язык : EnglishDefault : НетForced : Нет

Аудио #3Идентификатор : 4Формат : AC-3Формат/Информация : Audio Coding 3Профиль формата : Dolby DigitalРасширение режима : CM (complete main)Параметр Endianness формата : BigИдентификатор кодека : A_AC3Продолжительность : 2 ч. 7 м.Вид битрейта : ПостоянныйБитрейт : 224 Кбит/секКаналы : 2 каналаРасположение каналов : Front: L RЧастота : 48,0 КГцЧастота кадров : 31,250 кадров/сек (1536 spf)Метод сжатия : С потерямиРазмер потока : 205 Мбайт (1%)Заголовок : Commentary with writer/director Damien Chazelle and composer Justin HurwitzЯзык : EnglishDefault : НетForced : Нет

Текст #1Идентификатор : 5Формат : UTF-8Идентификатор кодека : S_TEXT/UTF8Идентификатор кодека/Информация : UTF-8 Plain TextПродолжительность : 1 ч. 45 м.Битрейт : 14 бит/секCount of elements : 251Размер потока : 11,4 Кбайт (0%)Заголовок : ForcedЯзык : RussianDefault : ДаForced : Нет

Текст #2Идентификатор : 6Формат : UTF-8Идентификатор кодека : S_TEXT/UTF8Идентификатор кодека/Информация : UTF-8 Plain TextПродолжительность : 1 ч. 59 м.Битрейт : 48 бит/секCount of elements : 1204Размер потока : 42,3 Кбайт (0%)Язык : EnglishDefault : НетForced : Нет

Текст #3Идентификатор : 7Формат : UTF-8Идентификатор кодека : S_TEXT/UTF8Идентификатор кодека/Информация : UTF-8 Plain TextПродолжительность : 1 ч. 59 м.Битрейт : 55 бит/секCount of elements : 1359Размер потока : 48,5 Кбайт (0%)Заголовок : SDHЯзык : EnglishDefault : НетForced : Нет

Меню00:00:00.000 : en:Chapter 0100:07:06.926 : en:Chapter 0200:17:30.883 : en:Chapter 0300:26:05.856 : en:Chapter 0400:31:14.039 : en:Chapter 0500:39:29.075 : en:Chapter 0600:46:17.566 : en:Chapter 0700:52:11.170 : en:Chapter 0800:58:50.360 : en:Chapter 0901:05:58.580 : en:Chapter 1001:13:01.293 : en:Chapter 1101:24:16.301 : en:Chapter 1201:31:50.880 : en:Chapter 1301:41:10.981 : en:Chapter 1401:46:07.611 : en:Chapter 1501:56:19.598 : en:Chapter 16


Внимание! AdBlock блокирует показ скриншотов, все вопросы к разработчикам )))
Трекер:  [ 27-Апр-2017 10:30 ]

  

Скачать .torrent

Размер .torrent файла 45 KB


Размер: 17.8 GB
Хэш (hash) релиза: 36fa8fa645eabdb699f69c5f2a93f51d9aec1f16
Подписка на обновления:

Торренты, похожие на Ла-Ла Ленд La La Land скачать торрент

Форум Название Автор Размер S L Добавлен
Зарубежные фильмы до 2016 ·· Ла-Ла Ленд / La La Land (Дэмьен Шазелл / Damien Chazelle) [2016, США, Гонконг, Мюзикл, драма, мелодрама, комедия, музыка, 2xDVD9] R5 Dub + Sub Rus + Original Eng [2-ух дисковое издание] Galfimbul 1454603059213.55 GB 0 0 1524852127

21:02

27-Апр-18

Зарубежные фильмы 2016-2019 (Новинки зарубежного кино) ·· Ла-Ла Ленд / La La Land (Дэмьен Шазелл / Damien Chazelle) [2016, США, Гонконг, мюзикл, драма, мелодрама, комедия, музыка, BDRip] Dub + Sub Rus, Eng + Original Eng Galfimbul 23415338402.18 GB 0 0 1516212072

21:01

17-Янв-18

Зарубежные фильмы до 2016 ·· Ла-Ла Ленд / La La Land (Дэмьен Шазелл / Damien Chazelle) [2016, США, мюзикл, драма, мелодрама, комедия, музыка, BDRemux 1080p] Dub + Original (Eng) + Sub (Rus, Eng) Galfimbul 3408395855931.74 GB 0 0 1498572743

17:12

27-Июн-17

Зарубежные фильмы до 2016 ·· Ла-Ла Ленд / La La Land (Дэмьен Шазелл / Damien Chazelle) [2016, США, мюзикл, драма, мелодрама, комедия, музыка, UHD BDRemux 2160p] Dub + Original (Eng) + Sub (Rus, Eng) Galfimbul 7714735611571.85 GB 0 0 1498044938

14:35

21-Июн-17

Зарубежные фильмы до 2016 ·· Ла-Ла Ленд / La La Land (Дэмьен Шазелл / Damien Chazelle) [2016, США, мюзикл, драма, мелодрама, комедия, музыка, BDRip 1080p] Dub (Blu-Ray RUS) + Sub (Eng) + Original (Eng) Galfimbul 2052073335719.11 GB 0 0 1495270762

11:59

20-Май-17

Зарубежные фильмы 2016-2019 (Новинки зарубежного кино) ·· Ла-Ла Ленд / La La Land (Дэмьен Шазелл / Damien Chazelle) [2016, США, Гонконг, Мюзикл, драма, мелодрама, комедия, музыка, HDRip] Dub (iTunes) + Sub Rus + Original Eng Galfimbul 23560674092.19 GB 0 0 1493373632

13:00

28-Апр-17

Зарубежные фильмы 2016-2019 (Новинки зарубежного кино) ·· Ла-Ла Ленд / La La Land (Дэмьен Шазелл / Damien Chazelle) [2016, США, Гонконг, мюзикл, мелодрама, комедия, BDRip-AVC] Dub + Original + Sub (rus forc, eng) Galfimbul 22768196182.12 GB 0 0 1493008362

07:32

24-Апр-17

Зарубежные фильмы 2016-2019 (Новинки зарубежного кино) ·· Ла-Ла Ленд / La La Land (Дэмьен Шазелл / Damien Chazelle) [2016, США, Гонконг, мюзикл, мелодрама, комедия, BDRip-AVC] Dub + Original + Sub (rus, eng) Galfimbul 22769112952.12 GB 0 0 1492870319

17:11

22-Апр-17

Зарубежные фильмы 2016-2019 (Новинки зарубежного кино) ·· Ла-Ла Ленд / La La Land (Дэмьен Шазелл / Damien Chazelle) [2016, США, Мюзикл, драма, мелодрама, комедия, музыка, HDRip-AVC] Dub (Line) + Original (Eng) + Subs (Rus, Eng) Galfimbul 33801943303.15 GB 0 0 1492677268

11:34

20-Апр-17

Зарубежные фильмы 2016-2019 (Новинки зарубежного кино) ·· Ла-Ла Ленд / La La Land (Дэмьен Шазелл / Damien Chazelle) [2016, США, Мюзикл, драма, мелодрама, комедия, музыка, WEB-DL 1080p] iTunes Galfimbul 45620427564.25 GB 0 0 1492639769

01:09

20-Апр-17

Зарубежные фильмы 2016-2019 (Новинки зарубежного кино) ·· Ла-Ла Ленд / La La Land (Дэмьен Шазелл / Damien Chazelle) [2016, США, Мюзикл, драма, мелодрама, комедия, музыка, HDRip] Dub + Sub Galfimbul 15657023941.46 GB 0 0 1492639579

01:06

20-Апр-17

Зарубежные фильмы 2016-2019 (Новинки зарубежного кино) ·· Ла-Ла Ленд / La La Land (Дэмьен Шазелл) [2016 г., мюзикл, драма, мелодрама, комедия, WEB-DL 1080p] Line Galfimbul 51227650954.77 GB 0 0 1492094516

17:41

13-Апр-17

Зарубежные фильмы 2016-2019 (Новинки зарубежного кино) ·· Ла-Ла Ленд / La La Land (Дэмьен Шазелл) [2016 г., мюзикл, драма, мелодрама, комедия, WEB-DLRip] Line Galfimbul 17849972001.66 GB 0 0 1492093448

17:24

13-Апр-17

Зарубежные фильмы 2016-2019 (Новинки зарубежного кино) ·· Ла-Ла Ленд / La La Land (Дэмьен Шазелл) [2016 г., мюзикл, драма, мелодрама, комедия, DVDScr] Line Galfimbul 14673018881.37 GB 0 0 1486025156

11:45

2-Фев-17

Зарубежные фильмы 2016-2019 (Новинки зарубежного кино) ·· Ла-Ла Ленд / La La Land (Дэмьен Шазелл) [2016 г., мюзикл, драма, мелодрама, комедия, DVDScr] Звук с TS Galfimbul 14731141121.37 GB 0 0 1484498538

19:42

15-Янв-17

Еще никто не оставлял запись к записи скачать торрент Ла-Ла Ленд La La Land . Будь первым!

!Обратная связь