Скачать через торрент Ла-Ла Ленд La La Land Фильм бесплатно в хорошем качестве torrent

Скачивайте на UnionPeer.org фильмы через торрент без регистрации. Новинки кино в хорошем качестве через торрент. На UnionPeer.org можно скачать через торрент фильмы 2014 и 2015 годов. Самые новые фильмы.

Скачать торрент Ла-Ла Ленд La La Land бесплатно через .torrent фильм мультфильм сериал

Статистика раздачи
Размер:  19.11 GB   |    Зарегистрирован:  6 лет 9 месяцев   |    .torrent скачан:  90 раз   |   
Раздают:  1  
 

Скачать Ла-Ла Ленд / La La Land (Дэмьен Шазелл / Damien Chazelle) [2016, США, мюзикл, драма, мелодрама, комедия, музыка, BDRip 1080p] Dub (Blu-Ray RUS) + Sub (Eng) + Original (Eng) через torrent

 
 
Автор Сообщение

Galfimbul

avatar Galfimbul


Ла-Ла Ленд / La La Land

Страна: США
Студия: Black Label Media
Жанр: мюзикл, драма, мелодрама, комедия, музыка
Год выпуска: 2016
Продолжительность: 02:07:48

Перевод: Профессиональный (дублированный) Blu-Ray RUS
Cубтитры: Русские (форсированные на песни и надписи, полные), Английские
Оригинальная аудиодорожка: английский

Режиссер: Дэмьен Шазелл / Damien Chazelle

В ролях: Райан Гослинг, Эмма Стоун, Джон Ледженд, Дж.К. Симмонс, Розмари ДеУитт, Финн Уиттрок, Калли Эрнандес, Соноя Мидзуно, Джессика Рот, Том Эверетт Скотт

Описание: Это история любви старлетки, которая между прослушиваниями подает кофе состоявшимся кинозвездам, и фанатичного джазового музыканта, вынужденного подрабатывать в заштатных барах. Но пришедший к влюбленным успех начинает подтачивать их отношения.



<div class="post-box">Скачать сэмпл</div>

Обладатель 6 премий «ОСКАР» за Лучшую женскую роль (Эмма Стоун), Лучшего режиссера (Дэмьен Шазелл), Лучшую работу оператора, Лучшую песню — «City of Stars», Лучший саундтрек и Лучшую работу художника-постановщика, 2017 г.

Тип релиза: BDRip 1080p
Контейнер: MKV

Видео: MPEG-4 AVC, 18,3 Мбит/с, 1920x754, 23,976 fps
Аудио 1: Rus, DTS, 1509 kb/s (6 ch), 48 kHz
Аудио 2: Eng, DTS-ES, 1536 kb/s (7 ch), 48 kHz
Аудио 3: Eng, AС3, 224 kb/s (2 ch), 48 kHz - комментарии Damien Chazelle и Justin Hurwitz
x264 [info]: frame I:964 Avg QP:13.77 size:227796
x264 [info]: frame P:36690 Avg QP:15.66 size:138368
x264 [info]: frame B:146197 Avg QP:16.88 size: 83658
x264 [info]: consecutive B-frames: 1.5% 1.9% 6.7% 13.8% 17.5% 38.6% 8.4% 2.6% 3.2% 3.2% 2.6%

<hr class="post-hr">

<div class="post-box">.NOTES:

Special thanks to Elheym who helped me with the subtitles.
Special thanks to Mx with his machine encode, nvtuan86 & AraGorN with PTS scenes.
Fixed dirty lines many scenes. Added border some scenes. Debanded/Deblocked many scenes and used zones.
Fixed some frames with PTS (94709,94710,94711,94712,94713,94895,94896,94898,94899,94908,94909)
Greetings: Nick007, v0danh, BodoiCuHo, riverstore, rose, wolgone, Friday, AraGorN, NOiZE and my friends !
ОбщееУникальный идентификатор : 254385931935688813922504077499193483462 (0xBF60F2C8AD2BE0D1BD27CC223EF9E0C6)Полное имя : La.La.Land.2016.BDRip.1080p.Secrets.mkvФормат : MatroskaВерсия формата : Version 4 / Version 2Размер файла : 19,1 ГбайтПродолжительность : 2 ч. 8 м.Общий поток : 21,4 Мбит/секНазвание фильма : La La Land (2016) - Release for rutracker.org by SecretsДата кодирования : UTC 2017-05-20 12:10:17Программа кодирования : mkvmerge v11.0.0 ('Alive') 64bitБиблиотека кодирования : libebml v1.3.4 + libmatroska v1.4.5Обложка : YesAttachments : Cover.png

ВидеоИдентификатор : 1Формат : AVCФормат/Информация : Advanced Video CodecПрофиль формата : [email protected]Параметр CABAC формата : ДаПараметр ReFrames формата : 5 кадровИдентификатор кодека : V_MPEG4/ISO/AVCПродолжительность : 2 ч. 7 м.Битрейт : 18,3 Мбит/секШирина : 1920 пикселейВысота : 754 пикселяСоотношение сторон : 2,546Режим частоты кадров : ПостоянныйЧастота кадров : 23,976 (24000/1001) кадра/секЦветовое пространство : YUVСубдискретизация насыщенности : 4:2:0Битовая глубина : 8 битТип развёртки : ПрогрессивнаяБит/(Пиксели*Кадры) : 0.527Размер потока : 16,3 Гбайт (85%)Заголовок : La La Land (2016) - Release for rutracker.org by SecretsБиблиотека кодирования : x264 core 148 r2762+56 6284cf3 t_mod_Custom [8-bit@all X86_64]Настройки программы : cabac=1 / ref=5 / deblock=1:-3:-3 / analyse=0x3:0x133 / me=umh / subme=11 / psy=1 / fade_compensate=0.00 / psy_rd=1.05:0.00 / mixed_ref=1 / me_range=32 / chroma_me=1 / trellis=2 / 8x8dct=1 / cqm=0 / deadzone=21,11 / fast_pskip=0 / chroma_qp_offset=-2 / threads=18 / lookahead_threads=4 / sliced_threads=0 / nr=0 / decimate=0 / interlaced=0 / bluray_compat=0 / constrained_intra=0 / fgo=0 / bframes=10 / b_pyramid=2 / b_adapt=2 / b_bias=0 / direct=3 / weightb=1 / open_gop=0 / weightp=2 / keyint=250 / keyint_min=23 / scenecut=40 / intra_refresh=0 / rc_lookahead=60 / rc=crf / mbtree=0 / crf=17.1000 / qcomp=0.65 / qpmin=0:0:0 / qpmax=69:69:69 / qpstep=4 / vbv_maxrate=62500 / vbv_bufsize=78125 / crf_max=0.0 / nal_hrd=none / filler=0 / ip_ratio=1.30 / pb_ratio=1.20 / aq=3:0.75 / aq-sensitivity=10.00 / aq-factor=1.00:1.00:1.00 / aq2=0 / aq3=0 / zones=1697,2200,crf=15/3333,3369,crf=15/4680,4800,crf=15/8604,8636,crf=15/9800,9939,crf=16/10026,10125,crf=15/10159,10235,crf=16/12881,12920,crf=16/12948,12985,crf=15/13270,13777,crf=15/15718,15897,crf=15/16275,16378,crf=15/18456,18520,crf=15/19066,19190,crf=15/19191,20954,crf=16/32803,33597,crf=15/34620,35500,crf=15.5/35835,35908,crf=15/35993,36049,crf=16/36050,36751,crf=15/36928,37052,crf=15.5/43728,43967,crf=15.5/43996,44014,crf=15.5/74862,74913,crf=15.5/75586,76092,crf=15/76161,76271,crf=15/76342,76655,crf=15.5/76953,77315,crf=15/77316,77529,crf=16/77530,77594,crf=15/77595,77815,crf=16/77816,77987,crf=15/78052,78555,crf=16/87336,87612,crf=15/87844,88030,crf=15/88494,88676,crf=15/89698,89896,crf=15/89999,90027,crf=15/90875,93692,crf=15/102931,103165,crf=15/106280,106386,crf=15/106621,106791,crf=15/107100,107157,crf=15.5/107418,107468,crf=15/107574,107666,crf=15/109187,109544,crf=15/121791,122645,crf=15/123002,123866,crf=15/124215,124297,crf=16/124436,124559,crf=16/124691,124729,crf=16/124822,124934,crf=16/125131,125229,crf=16/128023,128100,crf=15.5/128155,128198,crf=16/130590,130615,crf=15/133418,133469,crf=15/134696,134774,crf=16/137216,137290,crf=14/141340,142370,crf=15/153256,153682,crf=16/155915,156084,crf=15/158878,159577,crf=15/160026,160110,crf=15/162216,162290,crf=14/163351,163473,crf=15/163840,164060,crf=15/164317,164544,crf=16/164734,164886,crf=15/168550,168674,crf=16/172590,183640,crf=20/183780,183798,crf=14Язык : EnglishDefault : ДаForced : НетЦветовой диапазон : LimitedКоэффициенты матрицы : BT.709

Аудио #1Идентификатор : 2Формат : DTSФормат/Информация : Digital Theater SystemsРежим : 16Параметр Endianness формата : BigИдентификатор кодека : A_DTSПродолжительность : 2 ч. 8 м.Вид битрейта : ПостоянныйБитрейт : 1510 Кбит/секКаналы : 6 каналовРасположение каналов : Front: L C R, Side: L R, LFEЧастота : 48,0 КГцЧастота кадров : 93,750 кадра/сек (512 spf)Битовая глубина : 24 битМетод сжатия : С потерямиРазмер потока : 1,35 Гбайт (7%)Заголовок : Blu-Ray RUSЯзык : RussianDefault : ДаForced : Нет

Аудио #2Идентификатор : 3Формат : DTSФормат/Информация : Digital Theater SystemsПрофиль формата : ES Discrete / CoreРежим : 16Параметр Endianness формата : BigИдентификатор кодека : A_DTSПродолжительность : 2 ч. 7 м.Вид битрейта : ПостоянныйБитрейт : 1509 Кбит/секКаналы : 7 каналов / 6 каналовРасположение каналов : Front: L C R, Side: L R, Back: C, LFE / Front: L C R, Side: L R, LFEЧастота : 48,0 КГцЧастота кадров : 93,750 кадра/сек (512 spf)Битовая глубина : 24 битМетод сжатия : С потерямиРазмер потока : 1,35 Гбайт (7%)Язык : EnglishDefault : НетForced : Нет

Аудио #3Идентификатор : 4Формат : AC-3Формат/Информация : Audio Coding 3Расширение режима : CM (complete main)Параметр Endianness формата : BigИдентификатор кодека : A_AC3Продолжительность : 2 ч. 7 м.Вид битрейта : ПостоянныйБитрейт : 96,0 Кбит/секКаналы : 2 каналаРасположение каналов : Front: L RЧастота : 48,0 КГцЧастота кадров : 31,250 кадров/сек (1536 spf)Метод сжатия : С потерямиРазмер потока : 87,8 Мбайт (0%)Заголовок : Commentary with writer/director Damien Chazelle and composer Justin HurwitzЯзык : EnglishDefault : НетForced : Нет

Текст #1Идентификатор : 5Формат : UTF-8Идентификатор кодека : S_TEXT/UTF8Идентификатор кодека/Информация : UTF-8 Plain TextПродолжительность : 1 ч. 45 м.Битрейт : 14 бит/секCount of elements : 251Размер потока : 11,4 Кбайт (0%)Заголовок : ForcedЯзык : RussianDefault : ДаForced : Нет

Текст #2Идентификатор : 6Формат : UTF-8Идентификатор кодека : S_TEXT/UTF8Идентификатор кодека/Информация : UTF-8 Plain TextПродолжительность : 1 ч. 58 м.Битрейт : 62 бит/секCount of elements : 816Размер потока : 54,8 Кбайт (0%)Язык : RussianDefault : НетForced : Нет

Текст #3Идентификатор : 7Формат : UTF-8Идентификатор кодека : S_TEXT/UTF8Идентификатор кодека/Информация : UTF-8 Plain TextПродолжительность : 1 ч. 59 м.Битрейт : 48 бит/секCount of elements : 1204Размер потока : 42,4 Кбайт (0%)Язык : EnglishDefault : НетForced : Нет

Текст #4Идентификатор : 8Формат : UTF-8Идентификатор кодека : S_TEXT/UTF8Идентификатор кодека/Информация : UTF-8 Plain TextПродолжительность : 1 ч. 59 м.Битрейт : 55 бит/секCount of elements : 1359Размер потока : 48,5 Кбайт (0%)Заголовок : SDHЯзык : EnglishDefault : НетForced : Нет

Текст #5Идентификатор : 9Формат : UTF-8Идентификатор кодека : S_TEXT/UTF8Идентификатор кодека/Информация : UTF-8 Plain TextПродолжительность : 1 ч. 59 м.Битрейт : 63 бит/секCount of elements : 1359Размер потока : 56,0 Кбайт (0%)Заголовок : SDH-ColoredЯзык : EnglishDefault : НетForced : Нет

Меню00:00:00.000 : en:00:00:00.00000:07:06.926 : en:00:07:06.92600:17:30.883 : en:00:17:30.88300:26:05.856 : en:00:26:05.85600:31:14.039 : en:00:31:14.03900:39:29.075 : en:00:39:29.07500:46:17.566 : en:00:46:17.56600:52:11.170 : en:00:52:11.17000:58:50.360 : en:00:58:50.36001:05:58.580 : en:01:05:58.58001:13:01.293 : en:01:13:01.29301:24:16.301 : en:01:24:16.30101:31:50.880 : en:01:31:50.88001:41:10.981 : en:01:41:10.98101:46:07.611 : en:01:46:07.61101:56:19.598 : en:01:56:19.598
</div> </div><!--/post_body-->

Внимание! AdBlock блокирует показ скриншотов, все вопросы к разработчикам )))
Трекер:  [ 20-Май-2017 11:00 ]

  

Скачать .torrent

Размер .torrent файла 48 KB


Размер: 19.11 GB
Хэш (hash) релиза: f38d0f233441c8711a881c782729005df2af6c07
Подписка на обновления:

Торренты, похожие на Ла-Ла Ленд La La Land скачать торрент

Форум Название Автор Размер S L Добавлен
Зарубежные фильмы до 2016 ·· Ла-Ла Ленд / La La Land (Дэмьен Шазелл / Damien Chazelle) [2016, США, Гонконг, Мюзикл, драма, мелодрама, комедия, музыка, 2xDVD9] R5 Dub + Sub Rus + Original Eng [2-ух дисковое издание] Galfimbul 1454603059213.55 GB 0 0 1524852127

21:02

27-Апр-18

Зарубежные фильмы 2016-2019 (Новинки зарубежного кино) ·· Ла-Ла Ленд / La La Land (Дэмьен Шазелл / Damien Chazelle) [2016, США, Гонконг, мюзикл, драма, мелодрама, комедия, музыка, BDRip] Dub + Sub Rus, Eng + Original Eng Galfimbul 23415338402.18 GB 0 0 1516212072

21:01

17-Янв-18

Зарубежные фильмы до 2016 ·· Ла-Ла Ленд / La La Land (Дэмьен Шазелл / Damien Chazelle) [2016, США, мюзикл, драма, мелодрама, комедия, музыка, BDRemux 1080p] Dub + Original (Eng) + Sub (Rus, Eng) Galfimbul 3408395855931.74 GB 0 0 1498572743

17:12

27-Июн-17

Зарубежные фильмы до 2016 ·· Ла-Ла Ленд / La La Land (Дэмьен Шазелл / Damien Chazelle) [2016, США, мюзикл, драма, мелодрама, комедия, музыка, UHD BDRemux 2160p] Dub + Original (Eng) + Sub (Rus, Eng) Galfimbul 7714735611571.85 GB 0 0 1498044938

14:35

21-Июн-17

Зарубежные фильмы 2016-2019 (Новинки зарубежного кино) ·· Ла-Ла Ленд / La La Land (Дэмьен Шазелл / Damien Chazelle) [2016, США, Гонконг, Мюзикл, драма, мелодрама, комедия, музыка, HDRip] Dub (iTunes) + Sub Rus + Original Eng Galfimbul 23560674092.19 GB 0 0 1493373632

13:00

28-Апр-17

Зарубежные фильмы до 2016 ·· Ла-Ла Ленд / La La Land (Дэмьен Шазелл / Damien Chazelle) [2016, США, мюзикл, драма, мелодрама, комедия, музыка, BDRip 1080p] Dub (iTunes) + Sub (Eng) + Original (Eng) Galfimbul 1910835235317.8 GB 0 0 1493281266

11:21

27-Апр-17

Зарубежные фильмы 2016-2019 (Новинки зарубежного кино) ·· Ла-Ла Ленд / La La Land (Дэмьен Шазелл / Damien Chazelle) [2016, США, Гонконг, мюзикл, мелодрама, комедия, BDRip-AVC] Dub + Original + Sub (rus forc, eng) Galfimbul 22768196182.12 GB 0 0 1493008362

07:32

24-Апр-17

Зарубежные фильмы 2016-2019 (Новинки зарубежного кино) ·· Ла-Ла Ленд / La La Land (Дэмьен Шазелл / Damien Chazelle) [2016, США, Гонконг, мюзикл, мелодрама, комедия, BDRip-AVC] Dub + Original + Sub (rus, eng) Galfimbul 22769112952.12 GB 0 0 1492870319

17:11

22-Апр-17

Зарубежные фильмы 2016-2019 (Новинки зарубежного кино) ·· Ла-Ла Ленд / La La Land (Дэмьен Шазелл / Damien Chazelle) [2016, США, Мюзикл, драма, мелодрама, комедия, музыка, HDRip-AVC] Dub (Line) + Original (Eng) + Subs (Rus, Eng) Galfimbul 33801943303.15 GB 0 0 1492677268

11:34

20-Апр-17

Зарубежные фильмы 2016-2019 (Новинки зарубежного кино) ·· Ла-Ла Ленд / La La Land (Дэмьен Шазелл / Damien Chazelle) [2016, США, Мюзикл, драма, мелодрама, комедия, музыка, WEB-DL 1080p] iTunes Galfimbul 45620427564.25 GB 0 0 1492639769

01:09

20-Апр-17

Зарубежные фильмы 2016-2019 (Новинки зарубежного кино) ·· Ла-Ла Ленд / La La Land (Дэмьен Шазелл / Damien Chazelle) [2016, США, Мюзикл, драма, мелодрама, комедия, музыка, HDRip] Dub + Sub Galfimbul 15657023941.46 GB 0 0 1492639579

01:06

20-Апр-17

Зарубежные фильмы 2016-2019 (Новинки зарубежного кино) ·· Ла-Ла Ленд / La La Land (Дэмьен Шазелл) [2016 г., мюзикл, драма, мелодрама, комедия, WEB-DL 1080p] Line Galfimbul 51227650954.77 GB 0 0 1492094516

17:41

13-Апр-17

Зарубежные фильмы 2016-2019 (Новинки зарубежного кино) ·· Ла-Ла Ленд / La La Land (Дэмьен Шазелл) [2016 г., мюзикл, драма, мелодрама, комедия, WEB-DLRip] Line Galfimbul 17849972001.66 GB 0 0 1492093448

17:24

13-Апр-17

Зарубежные фильмы 2016-2019 (Новинки зарубежного кино) ·· Ла-Ла Ленд / La La Land (Дэмьен Шазелл) [2016 г., мюзикл, драма, мелодрама, комедия, DVDScr] Line Galfimbul 14673018881.37 GB 0 0 1486025156

11:45

2-Фев-17

Зарубежные фильмы 2016-2019 (Новинки зарубежного кино) ·· Ла-Ла Ленд / La La Land (Дэмьен Шазелл) [2016 г., мюзикл, драма, мелодрама, комедия, DVDScr] Звук с TS Galfimbul 14731141121.37 GB 0 0 1484498538

19:42

15-Янв-17

Еще никто не оставлял запись к записи скачать торрент Ла-Ла Ленд La La Land . Будь первым!

!Обратная связь