Скачать через торрент Ла-Ла Ленд La La Land Фильм бесплатно в хорошем качестве torrent

Скачивайте на UnionPeer.org фильмы через торрент без регистрации. Новинки кино в хорошем качестве через торрент. На UnionPeer.org можно скачать через торрент фильмы 2014 и 2015 годов. Самые новые фильмы.

Скачать торрент Ла-Ла Ленд La La Land бесплатно через .torrent фильм мультфильм сериал

Статистика раздачи
Размер:  13.55 GB   |    Зарегистрирован:  5 лет 10 месяцев   |    .torrent скачан:  39 раз   |   
Раздают:  1  
   
 
Автор Сообщение

Galfimbul

avatar Galfimbul


Ла-Ла Ленд / La La Land
«Бесстрашным мечтателям посвящается…»
Страна: США, Гонконг
Студии: Lionsgate/Summit, CinemaScope
Жанр: Мюзикл, драма, мелодрама, комедия, музыка
Год выпуска: 2016
Дата мировой премьеры: 31 августа 2016
Дата российской премьеры: 12 января 2017, «Централ Партнершип»
Дата выхода DVD релиза: 22 мая 2017, «НД Плэй»
Продолжительность: 02:02:53
Перевод: Профессиональный (дублированный) [Лицензия]
Субтитры: Русские
Оригинальная аудиодорожка: Английская
Режиссер: Дэмьен Шазелл / Damien Chazelle
Продюсеры: Фред Бергер, Гари Гилберт, Джордан Хоровиц
Актеры: Райан Гослинг, Эмма Стоун, Джон Ледженд, Дж.К. Симмонс, Розмари ДеУитт, Финн Уиттрок, Калли Эрнандес, Соноя Мидзуно, Джессика Рот, Том Эверетт Скотт
Описание:
Это история любви старлетки, которая между прослушиваниями подает кофе состоявшимся кинозвездам, и фанатичного джазового музыканта, вынужденного подрабатывать в заштатных барах. Но пришедший к влюбленным успех начинает подтачивать их отношения.

Доп. материалы:
Disc 1
- Анонсы
Disc 2
- Как создавали фильм: интервью с актёрами и создателями фильма, кадры со съёмок, музыкальное сопровождение и многое другое.

Качество: 2xDVD9 R5
Формат: DVD-Video
Disc 1:
Видео: MPEG-2, 720x576@1024x576 (PAL 16:9), ~6700 Кбит/сек
Аудио 1: AC3 5.1, 448 Кбит/сек [Русский - дублированный]
Аудио 2: AC3 5.1, 448 Кбит/сек [Английский - оригинал]
Disc 2:
Видео: MPEG-2, 720x576@1024x576 (PAL 16:9), ~7000 Кбит/сек
Аудио: AC3 2.0, 192 Кбит/сек [Английский - оригинал]
Title: Disc 1
Size: 6.68 Gb ( 7 006 408 KBytes ) - DVD-9
Enabled regions: 1, 2, 3, 4, 5, 6, 7, 8

VTS_01 :
Play Length: 00:00:15
Video: PAL 4:3 (720x576) VBR
Audio:
Not specified (Dolby AC3, 2 ch)

VTS_02 :
Play Length: 00:00:05
Video: PAL 16:9 (720x576) VBR, Auto Pan&Scan
Audio:
Not specified (Dolby AC3, 2 ch)

VTS_03 :
Play Length: 00:01:56
Video: PAL 16:9 (720x576) VBR, Auto Pan&Scan
Audio:
Russian (Dolby AC3, 2 ch)
English (Dolby AC3, 2 ch)
Subtitles:
Russian

VTS_04 :
Play Length: 00:02:23
Video: PAL 16:9 (720x576) VBR, Auto Pan&Scan
Audio:
Russian (Dolby AC3, 2 ch)
English (Dolby AC3, 2 ch)
Subtitles:
Russian

VTS_05 :
Play Length: 00:01:41
Video: PAL 16:9 (720x576) VBR, Auto Pan&Scan
Audio:
Russian (Dolby AC3, 2 ch)
English (Dolby AC3, 2 ch)
Subtitles:
Russian

VTS_06 :
Play Length: 00:02:24
Video: PAL 16:9 (720x576) VBR, Auto Pan&Scan
Audio:
Russian (Dolby AC3, 2 ch)
English (Dolby AC3, 2 ch)
Subtitles:
Russian

VTS_07 :
Play Length: 00:02:30
Video: PAL 16:9 (720x576) VBR, Auto Pan&Scan
Audio:
Russian (Dolby AC3, 2 ch)
English (Dolby AC3, 2 ch)
Subtitles:
Russian

VTS_08 :
Play Length: 00:01:29
Video: PAL 16:9 (720x576) VBR, Auto Pan&Scan
Audio:
Russian (Dolby AC3, 2 ch)
English (Dolby AC3, 2 ch)
Subtitles:
Russian

VTS_09 :
Play Length: 02:02:53
Video: PAL 16:9 (720x576) VBR, Auto Pan&Scan
Audio:
Russian (Dolby AC3, 6 ch)
English (Dolby AC3, 6 ch)
Subtitles:
Russian

VTS_10 :
Play Length: 00:00:01
Video: PAL 16:9 (720x576) VBR, Auto Pan&Scan
Audio:
Russian (Dolby AC3, 2 ch)
English (Dolby AC3, 2 ch)
Subtitles:
Russian

Menu Video:
PAL 16:9 (720x576) VBR
Auto Letterboxed
Menu Audio:
Not specified (LinearPCM, 2 ch)
Menu Subtitles:
Not specified
Menu English Language Unit :
Root Menu
Chapter (PTT) Menu
Общее
Полное имя : V:\Torrents\La La Land (2016) 2xDVD9 R5\Disc 1\VIDEO_TS\VTS_09_1.VOB
Формат : MPEG-PS
Размер файла : 1000 Мбайт
Продолжительность : 18 м. 4 с.
Режим общего битрейта : Переменный
Общий поток : 7738 Кбит/сек

Видео
Идентификатор : 224 (0xE0)
Формат : MPEG Video
Версия формата : Version 2
Профиль формата : Main@Main
Настройки формата : BVOP
Параметр BVOP формата : Да
Параметр матрицы формата : По умолчанию
Параметр GOP формата : M=3, N=12
Продолжительность : 18 м. 4 с.
Вид битрейта : Переменный
Битрейт : 6688 Кбит/сек
Максимальный битрейт : 8500 Кбит/сек
Ширина : 720 пикселей
Высота : 576 пикселей
Соотношение сторон : 16:9
Частота кадров : 25,000 кадров/сек
Стандарт вещания : PAL
Цветовое пространство : YUV
Субдискретизация насыщенности : 4:2:0
Битовая глубина : 8 бит
Тип развёртки : Прогрессивная
Метод сжатия : С потерями
Бит/(Пиксели*Кадры) : 0.645
Временной код первого кадра : 00:00:00:00
Оригинал временного кода : Group of pictures header
Размер потока : 864 Мбайт (86%)

Аудио #1
Идентификатор : 189 (0xBD)-128 (0x80)
Формат : AC-3
Формат/Информация : Audio Coding 3
Параметр Endianness формата : Big
Режим смешивания : DVD-Video
Продолжительность : 18 м. 3 с.
Вид битрейта : Постоянный
Битрейт : 448 Кбит/сек
Каналы : 6 каналов
Расположение каналов : Front: L C R, Side: L R, LFE
Частота : 48,0 КГц
Частота кадров : 31,250 кадров/сек (1536 SPF)
Битовая глубина : 16 бит
Метод сжатия : С потерями
Размер потока : 57,9 Мбайт (6%)
ServiceKind/String : Complete Main

Аудио #2
Идентификатор : 189 (0xBD)-129 (0x81)
Формат : AC-3
Формат/Информация : Audio Coding 3
Параметр Endianness формата : Big
Режим смешивания : DVD-Video
Продолжительность : 18 м. 3 с.
Вид битрейта : Постоянный
Битрейт : 448 Кбит/сек
Каналы : 6 каналов
Расположение каналов : Front: L C R, Side: L R, LFE
Частота : 48,0 КГц
Частота кадров : 31,250 кадров/сек (1536 SPF)
Битовая глубина : 16 бит
Метод сжатия : С потерями
Размер потока : 57,9 Мбайт (6%)
ServiceKind/String : Complete Main

Текст #1
Идентификатор : 189 (0xBD)-32 (0x20)
Формат : RLE
Формат/Информация : Run-length encoding
Режим смешивания : DVD-Video

Текст #2
Идентификатор : 189 (0xBD)-33 (0x21)
Формат : RLE
Формат/Информация : Run-length encoding
Режим смешивания : DVD-Video

Меню

Title: Disc 2
Size: 6.87 Gb ( 7 198 700 KBytes ) - DVD-9
Enabled regions: 1, 2, 3, 4, 5, 6, 7, 8

VTS_01 :
Play Length: 00:00:15
Video: PAL 4:3 (720x576) VBR
Audio:
Not specified (Dolby AC3, 2 ch)

VTS_02 :
Play Length: 02:19:40
Video: PAL 16:9 (720x576) VBR, Auto Pan&Scan
Audio:
English (Dolby AC3, 2 ch)

Menu Video:
PAL 16:9 (720x576) VBR
Auto Letterboxed
Menu Audio:
Not specified (LinearPCM, 2 ch)
Menu Subtitles:
Not specified
Menu English Language Unit :
Root Menu
Chapter (PTT) Menu
Общее
Полное имя : V:\Torrents\La La Land (2016) 2xDVD9 R5\Disc 2\VIDEO_TS\VTS_02_5.VOB
Формат : MPEG-PS
Размер файла : 1000 Мбайт
Продолжительность : 18 м. 57 с.
Режим общего битрейта : Переменный
Общий поток : 7374 Кбит/сек

Видео
Идентификатор : 224 (0xE0)
Формат : MPEG Video
Версия формата : Version 2
Профиль формата : Main@Main
Настройки формата : BVOP
Параметр BVOP формата : Да
Параметр матрицы формата : По умолчанию
Параметр GOP формата : M=3, N=12
Продолжительность : 18 м. 57 с.
Вид битрейта : Переменный
Битрейт : 7035 Кбит/сек
Максимальный битрейт : 8500 Кбит/сек
Ширина : 720 пикселей
Высота : 576 пикселей
Соотношение сторон : 16:9
Частота кадров : 25,000 кадров/сек
Стандарт вещания : PAL
Цветовое пространство : YUV
Субдискретизация насыщенности : 4:2:0
Битовая глубина : 8 бит
Тип развёртки : Прогрессивная
Метод сжатия : С потерями
Бит/(Пиксели*Кадры) : 0.679
Временной код первого кадра : 01:20:23:17
Оригинал временного кода : Group of pictures header
Размер потока : 954 Мбайт (95%)

Аудио
Идентификатор : 189 (0xBD)-128 (0x80)
Формат : AC-3
Формат/Информация : Audio Coding 3
Параметр Endianness формата : Big
Режим смешивания : DVD-Video
Продолжительность : 18 м. 57 с.
Вид битрейта : Постоянный
Битрейт : 192 Кбит/сек
Каналы : 2 канала
Расположение каналов : Front: L R
Частота : 48,0 КГц
Частота кадров : 31,250 кадров/сек (1536 SPF)
Битовая глубина : 16 бит
Метод сжатия : С потерями
Задержка видео : -464 мс.
Размер потока : 26,0 Мбайт (3%)
ServiceKind/String : Complete Main

Меню



За предоставленный DVD спасибо большое AKIM2B
Раздаю с 10:00 до 23:00 до 10 скачавших.

Внимание! AdBlock блокирует показ скриншотов, все вопросы к разработчикам )))
Трекер:  [ 27-Апр-2018 21:01 ]

  

Скачать .torrent

Размер .torrent файла 71 KB


Размер: 13.55 GB
Хэш (hash) релиза: 44094819e136de11f40f0fce2092afc7974310f7
Подписка на обновления:

Торренты, похожие на Ла-Ла Ленд La La Land скачать торрент

Форум Название Автор Размер S L Добавлен
Зарубежные фильмы 2016-2019 (Новинки зарубежного кино) ·· Ла-Ла Ленд / La La Land (Дэмьен Шазелл / Damien Chazelle) [2016, США, Гонконг, мюзикл, драма, мелодрама, комедия, музыка, BDRip] Dub + Sub Rus, Eng + Original Eng Galfimbul 23415338402.18 GB 0 0 1516212072

21:01

17-Янв-18

Зарубежные фильмы до 2016 ·· Ла-Ла Ленд / La La Land (Дэмьен Шазелл / Damien Chazelle) [2016, США, мюзикл, драма, мелодрама, комедия, музыка, BDRemux 1080p] Dub + Original (Eng) + Sub (Rus, Eng) Galfimbul 3408395855931.74 GB 0 0 1498572743

17:12

27-Июн-17

Зарубежные фильмы до 2016 ·· Ла-Ла Ленд / La La Land (Дэмьен Шазелл / Damien Chazelle) [2016, США, мюзикл, драма, мелодрама, комедия, музыка, UHD BDRemux 2160p] Dub + Original (Eng) + Sub (Rus, Eng) Galfimbul 7714735611571.85 GB 0 0 1498044938

14:35

21-Июн-17

Зарубежные фильмы до 2016 ·· Ла-Ла Ленд / La La Land (Дэмьен Шазелл / Damien Chazelle) [2016, США, мюзикл, драма, мелодрама, комедия, музыка, BDRip 1080p] Dub (Blu-Ray RUS) + Sub (Eng) + Original (Eng) Galfimbul 2052073335719.11 GB 0 0 1495270762

11:59

20-Май-17

Зарубежные фильмы 2016-2019 (Новинки зарубежного кино) ·· Ла-Ла Ленд / La La Land (Дэмьен Шазелл / Damien Chazelle) [2016, США, Гонконг, Мюзикл, драма, мелодрама, комедия, музыка, HDRip] Dub (iTunes) + Sub Rus + Original Eng Galfimbul 23560674092.19 GB 0 0 1493373632

13:00

28-Апр-17

Зарубежные фильмы до 2016 ·· Ла-Ла Ленд / La La Land (Дэмьен Шазелл / Damien Chazelle) [2016, США, мюзикл, драма, мелодрама, комедия, музыка, BDRip 1080p] Dub (iTunes) + Sub (Eng) + Original (Eng) Galfimbul 1910835235317.8 GB 0 0 1493281266

11:21

27-Апр-17

Зарубежные фильмы 2016-2019 (Новинки зарубежного кино) ·· Ла-Ла Ленд / La La Land (Дэмьен Шазелл / Damien Chazelle) [2016, США, Гонконг, мюзикл, мелодрама, комедия, BDRip-AVC] Dub + Original + Sub (rus forc, eng) Galfimbul 22768196182.12 GB 0 0 1493008362

07:32

24-Апр-17

Зарубежные фильмы 2016-2019 (Новинки зарубежного кино) ·· Ла-Ла Ленд / La La Land (Дэмьен Шазелл / Damien Chazelle) [2016, США, Гонконг, мюзикл, мелодрама, комедия, BDRip-AVC] Dub + Original + Sub (rus, eng) Galfimbul 22769112952.12 GB 0 0 1492870319

17:11

22-Апр-17

Зарубежные фильмы 2016-2019 (Новинки зарубежного кино) ·· Ла-Ла Ленд / La La Land (Дэмьен Шазелл / Damien Chazelle) [2016, США, Мюзикл, драма, мелодрама, комедия, музыка, HDRip-AVC] Dub (Line) + Original (Eng) + Subs (Rus, Eng) Galfimbul 33801943303.15 GB 0 0 1492677268

11:34

20-Апр-17

Зарубежные фильмы 2016-2019 (Новинки зарубежного кино) ·· Ла-Ла Ленд / La La Land (Дэмьен Шазелл / Damien Chazelle) [2016, США, Мюзикл, драма, мелодрама, комедия, музыка, WEB-DL 1080p] iTunes Galfimbul 45620427564.25 GB 0 0 1492639769

01:09

20-Апр-17

Зарубежные фильмы 2016-2019 (Новинки зарубежного кино) ·· Ла-Ла Ленд / La La Land (Дэмьен Шазелл / Damien Chazelle) [2016, США, Мюзикл, драма, мелодрама, комедия, музыка, HDRip] Dub + Sub Galfimbul 15657023941.46 GB 0 0 1492639579

01:06

20-Апр-17

Зарубежные фильмы 2016-2019 (Новинки зарубежного кино) ·· Ла-Ла Ленд / La La Land (Дэмьен Шазелл) [2016 г., мюзикл, драма, мелодрама, комедия, WEB-DL 1080p] Line Galfimbul 51227650954.77 GB 0 0 1492094516

17:41

13-Апр-17

Зарубежные фильмы 2016-2019 (Новинки зарубежного кино) ·· Ла-Ла Ленд / La La Land (Дэмьен Шазелл) [2016 г., мюзикл, драма, мелодрама, комедия, WEB-DLRip] Line Galfimbul 17849972001.66 GB 0 0 1492093448

17:24

13-Апр-17

Зарубежные фильмы 2016-2019 (Новинки зарубежного кино) ·· Ла-Ла Ленд / La La Land (Дэмьен Шазелл) [2016 г., мюзикл, драма, мелодрама, комедия, DVDScr] Line Galfimbul 14673018881.37 GB 0 0 1486025156

11:45

2-Фев-17

Зарубежные фильмы 2016-2019 (Новинки зарубежного кино) ·· Ла-Ла Ленд / La La Land (Дэмьен Шазелл) [2016 г., мюзикл, драма, мелодрама, комедия, DVDScr] Звук с TS Galfimbul 14731141121.37 GB 0 0 1484498538

19:42

15-Янв-17

Еще никто не оставлял запись к записи скачать торрент Ла-Ла Ленд La La Land . Будь первым!

!Обратная связь