Скачать через торрент Логан Logan Фильм бесплатно в хорошем качестве torrent

Скачивайте на UnionPeer.org фильмы через торрент без регистрации. Новинки кино в хорошем качестве через торрент. На UnionPeer.org можно скачать через торрент фильмы 2014 и 2015 годов. Самые новые фильмы.

Скачать торрент Логан Logan бесплатно через .torrent фильм мультфильм сериал

Статистика раздачи
Размер:  18.55 GB   |    Зарегистрирован:  6 лет 7 месяцев   |    .torrent скачан:  167 раз   |   
Раздают:  1  
   
 
Автор Сообщение

Galfimbul

avatar Galfimbul


Логан / Logan

Страна: США
Студия: 20th Century Fox Film Corporation, Marvel Entertainment
Жанр: фантастика, боевик, триллер, драма
Год выпуска: 2017
Продолжительность: 02:17:23

Перевод 1: Профессиональный (дублированный)
Перевод 2: Любительский (многоголосый закадровый) Paradox&Omskbird Records
Перевод 3: Одноголосый закадровый Михаил Чадов
Перевод 4: Одноголосый закадровый Д.Есарев
Субтитры: Rus, Ukr, Eng
Оригинальная аудиодорожка: английский

Режиссер: Джеймс Мэнголд / James Mangold

В ролях: Хью Джекман, Патрик Стюарт, Дафни Кин, Бойд Холбрук, Стивен Мерчант, Элизабет Родригес, Ричард Э. Грант, Эрик Ла Салль, Элиз Нил, Куинси Фаус

Описание: В недалеком будущем уставший от жизни Логан заботится о больном профессоре Икс, который прячется неподалеку от мексиканской границы. Но Логан больше не сможет скрывать свое прошлое, когда встретится с юным мутантом, которого преследуют темные силы.



Тип релиза: BDRip 1080p
Контейнер: MKV

Видео: MPEG-4 AVC, 12.5 Mбит/с, 1920x808, 23,976 fps
Аудио 1: Rus, DTS, 768 kb/s (6 ch), 48 kHz - дубляж
Аудио 2: Rus, DTS, 1510 kb/s (6 ch), 48 kHz - Paradox&Omskbird Records
Аудио 3: Rus, DTS, 1510 kb/s (6 ch), 48 kHz - Чадов
Аудио 4: Rus, DTS, 1510 kb/s (6 ch), 48 kHz - Есарев
Аудио 5: Eng, DTS, 1510 kb/s (6 ch), 48 kHz
Формат субтитров: softsub (SRT)
x264 [info]: frame I:1745 Avg QP:13.86 size:183538
x264 [info]: frame P:46919 Avg QP:15.19 size:101245
x264 [info]: frame B:148977 Avg QP:16.25 size: 52546

Format : Matroska
Format version : Version 4 / Version 2
File size : 18.5 GiB
Duration : 2 h 17 min
Overall bit rate : 19.3 Mb/s
Movie name : Логан. (Tonik)
Encoded date : UTC 2017-06-29 11:13:35
Writing application : mkvmerge v7.1.0 ('Good Love') 64bit built on Jul 27 2014 13:06:55
Writing library : libebml v1.3.0 + libmatroska v1.4.1

Video
ID : 1
Format : AVC
Format/Info : Advanced Video Codec
Format profile : [email protected]
Format settings, CABAC : Yes
Format settings, ReFrames : 5 frames
Codec ID : V_MPEG4/ISO/AVC
Duration : 2 h 17 min
Bit rate : 12.5 Mb/s
Width : 1 920 pixels
Height : 808 pixels
Display aspect ratio : 2.40:1
Frame rate mode : Constant
Frame rate : 23.976 (24000/1001) FPS
Color space : YUV
Chroma subsampling : 4:2:0
Bit depth : 8 bits
Scan type : Progressive
Bits/(Pixel*Frame) : 0.337
Stream size : 12.0 GiB (65%)
Writing library : x264 core 148 r2762+56 6284cf3 t_mod_Custom [8-bit@all X86_64]
Encoding settings : cabac=1 / ref=5 / deblock=1:-3:-3 / analyse=0x3:0x133 / me=umh / subme=10 / psy=1 / fade_compensate=0.00 / psy_rd=1.00:0.00 / mixed_ref=1 / me_range=32 / chroma_me=1 / trellis=2 / 8x8dct=1 / cqm=0 / deadzone=21,11 / fast_pskip=0 / chroma_qp_offset=-2 / threads=6 / lookahead_threads=1 / sliced_threads=0 / nr=0 / decimate=0 / interlaced=0 / bluray_compat=0 / constrained_intra=0 / fgo=0 / bframes=8 / b_pyramid=2 / b_adapt=2 / b_bias=0 / direct=3 / weightb=1 / open_gop=0 / weightp=2 / keyint=250 / keyint_min=23 / scenecut=40 / intra_refresh=0 / rc=crf / mbtree=0 / crf=17.1000 / qcomp=0.60 / qpmin=0:0:0 / qpmax=69:69:69 / qpstep=4 / ip_ratio=1.30 / pb_ratio=1.20 / aq=3:0.85 / aq-sensitivity=10.00 / aq-factor=1.00:1.00:1.00 / aq2=0 / aq3=0
Language : English
Default : Yes
Forced : No

Audio #1
ID : 2
Format : DTS
Format/Info : Digital Theater Systems
Mode : 16
Format settings, Endianness : Big
Codec ID : A_DTS
Duration : 2 h 17 min
Bit rate mode : Constant
Bit rate : 768 kb/s
Channel(s) : 6 channels
Channel positions : Front: L C R, Side: L R, LFE
Sampling rate : 48.0 kHz
Frame rate : 93.750 FPS (512 spf)
Bit depth : 24 bits
Compression mode : Lossy
Stream size : 755 MiB (4%)
Language : Russian
Default : Yes
Forced : No

Audio #2
ID : 3
Format : DTS
Format/Info : Digital Theater Systems
Mode : 16
Format settings, Endianness : Big
Codec ID : A_DTS
Duration : 2 h 17 min
Bit rate mode : Constant
Bit rate : 1 510 kb/s
Channel(s) : 6 channels
Channel positions : Front: L C R, Side: L R, LFE
Sampling rate : 48.0 kHz
Frame rate : 93.750 FPS (512 spf)
Bit depth : 24 bits
Compression mode : Lossy
Stream size : 1.45 GiB (8%)
Title : Paradox&Omskbird Records
Language : Russian
Default : No
Forced : No

Audio #3
ID : 4
Format : DTS
Format/Info : Digital Theater Systems
Mode : 16
Format settings, Endianness : Big
Codec ID : A_DTS
Duration : 2 h 17 min
Bit rate mode : Constant
Bit rate : 1 510 kb/s
Channel(s) : 6 channels
Channel positions : Front: L C R, Side: L R, LFE
Sampling rate : 48.0 kHz
Frame rate : 93.750 FPS (512 spf)
Bit depth : 24 bits
Compression mode : Lossy
Stream size : 1.45 GiB (8%)
Title : Михаил Чадов
Language : Russian
Default : No
Forced : No

Audio #4
ID : 5
Format : DTS
Format/Info : Digital Theater Systems
Mode : 16
Format settings, Endianness : Big
Codec ID : A_DTS
Duration : 2 h 17 min
Bit rate mode : Constant
Bit rate : 1 509 kb/s
Channel(s) : 6 channels
Channel positions : Front: L C R, Side: L R, LFE
Sampling rate : 48.0 kHz
Frame rate : 93.750 FPS (512 spf)
Bit depth : 24 bits
Compression mode : Lossy
Stream size : 1.45 GiB (8%)
Title : Д.Есарев
Language : Russian
Default : No
Forced : No

Audio #5
ID : 6
Format : DTS
Format/Info : Digital Theater Systems
Mode : 16
Format settings, Endianness : Big
Codec ID : A_DTS
Duration : 2 h 17 min
Bit rate mode : Constant
Bit rate : 1 509 kb/s
Channel(s) : 6 channels
Channel positions : Front: L C R, Side: L R, LFE
Sampling rate : 48.0 kHz
Frame rate : 93.750 FPS (512 spf)
Bit depth : 24 bits
Compression mode : Lossy
Stream size : 1.45 GiB (8%)
Language : English
Default : No
Forced : No

Text #1
ID : 7
Format : UTF-8
Codec ID : S_TEXT/UTF8
Codec ID/Info : UTF-8 Plain Text
Duration : 2 h 15 min
Bit rate : 0 b/s
Count of elements : 4
Stream size : 153 Bytes (0%)
Title : Forced
Language : Russian
Default : Yes
Forced : No

Text #2
ID : 8
Format : UTF-8
Codec ID : S_TEXT/UTF8
Codec ID/Info : UTF-8 Plain Text
Duration : 2 h 16 min
Bit rate : 60 b/s
Count of elements : 1378
Stream size : 60.2 KiB (0%)
Language : Russian
Default : No
Forced : No

Text #3
ID : 9
Format : UTF-8
Codec ID : S_TEXT/UTF8
Codec ID/Info : UTF-8 Plain Text
Duration : 2 h 17 min
Bit rate : 155 b/s
Count of elements : 2062
Stream size : 156 KiB (0%)
Title : режиссёр Джим Мэнголд
Language : Russian
Default : No
Forced : No

Text #4
ID : 10
Format : UTF-8
Codec ID : S_TEXT/UTF8
Codec ID/Info : UTF-8 Plain Text
Duration : 2 h 16 min
Bit rate : 59 b/s
Count of elements : 1385
Stream size : 59.5 KiB (0%)
Language : Ukrainian
Default : No
Forced : No

Text #5
ID : 11
Format : UTF-8
Codec ID : S_TEXT/UTF8
Codec ID/Info : UTF-8 Plain Text
Duration : 2 h 13 min
Bit rate : 41 b/s
Count of elements : 1555
Stream size : 40.8 KiB (0%)
Language : English
Default : No
Forced : No

Text #6
ID : 12
Format : UTF-8
Codec ID : S_TEXT/UTF8
Codec ID/Info : UTF-8 Plain Text
Duration : 2 h 13 min
Bit rate : 49 b/s
Count of elements : 1951
Stream size : 48.7 KiB (0%)
Title : SDH
Language : English
Default : No
Forced : No

Menu
00:00:00.000 : en:00:00:00.000
00:05:35.126 : en:00:05:35.126
00:09:18.558 : en:00:09:18.558
00:11:41.159 : en:00:11:41.159
00:16:23.232 : en:00:16:23.232
00:20:11.669 : en:00:20:11.669
00:24:26.715 : en:00:24:26.715
00:26:11.904 : en:00:26:11.904
00:30:13.311 : en:00:30:13.311
00:31:59.126 : en:00:31:59.126
00:34:56.886 : en:00:34:56.886
00:39:53.433 : en:00:39:53.433
00:42:55.573 : en:00:42:55.573
00:45:03.826 : en:00:45:03.826
00:47:53.412 : en:00:47:53.412
00:49:39.560 : en:00:49:39.560
00:52:14.423 : en:00:52:14.423
00:54:30.517 : en:00:54:30.517
00:57:44.211 : en:00:57:44.211
01:00:10.398 : en:01:00:10.398
01:03:53.830 : en:01:03:53.830
01:06:55.511 : en:01:06:55.511
01:09:54.774 : en:01:09:54.774
01:13:15.891 : en:01:13:15.891
01:18:43.594 : en:01:18:43.594
01:21:50.906 : en:01:21:50.906
01:25:52.189 : en:01:25:52.189
01:28:38.813 : en:01:28:38.813
01:32:41.431 : en:01:32:41.431
01:35:29.724 : en:01:35:29.724
01:41:03.432 : en:01:41:03.432
01:43:39.880 : en:01:43:39.880
01:49:38.989 : en:01:49:38.989
01:54:20.562 : en:01:54:20.562
01:57:00.430 : en:01:57:00.430
01:59:20.403 : en:01:59:20.403
02:01:14.434 : en:02:01:14.434
02:05:09.627 : en:02:05:09.627
02:06:40.551 : en:02:06:40.551
02:11:07.860 : en:02:11:07.860
Добавил дубляж

Внимание! AdBlock блокирует показ скриншотов, все вопросы к разработчикам )))
Трекер:  [ 03-Июл-2017 17:01 ]

  

Скачать .torrent

Размер .torrent файла 47 KB


Размер: 18.55 GB
Хэш (hash) релиза: dfa6e4ddd3f168ae92bcb30b872a420df7e2d4bd
Подписка на обновления:

Торренты, похожие на Логан Logan скачать торрент

Форум Название Автор Размер S L Добавлен
Зарубежные фильмы 2016-2019 (Новинки зарубежного кино) ·%· Логан / Logan (2017) BDRip-HEVC 1080p от HEVC-CLUB | D Galfimbul 66921638816.23 GB 0 0 1575631212

14:20

6-Дек-19

Зарубежные фильмы 2016-2019 (Новинки зарубежного кино) ·%· Логан / Logan (2017) UHD BDRip-HEVC 2160p | 4K | HDR | D, P, A Galfimbul 1931670686617.99 GB 0 0 1557567008

12:30

11-Май-19

Зарубежные фильмы до 2016 ·· Логан / Logan (Джеймс Мэнголд / James Mangold) [2017, США, Фантастика, боевик, триллер, драма, DVD9] R5 Dub + Sub Rus + Original Eng Galfimbul 74236702726.91 GB 0 0 1527093055

19:30

23-Май-18

Зарубежные фильмы 2016-2019 (Новинки зарубежного кино) ·· Логан / Logan (Джеймс Мэнголд / James Mangold) [2017, США, фантастика, боевик, триллер, BDRip] AVO (Юрий Живов) Galfimbul 23283118082.17 GB 0 0 1511191824

18:30

20-Ноя-17

Трейлеры и дополнительные материалы ·· Логан / Logan (Джеймс Мэнголд) [2017, Фантастика | Боевик | Триллер | Драма, BDRip 720p] дополнительные материалы Galfimbul 26828124092.5 GB 0 0 1500199695

13:08

16-Июл-17

Зарубежные фильмы до 2016 ·· Логан / Logan (Джеймс Мэнголд / James Mangold) [2017, США, фантастика, боевик, триллер, драма, BD> DVD5(Custom)] DUB + Sub Rus / Eng + Original Eng Galfimbul 46898913284.37 GB 0 0 1499589367

11:36

9-Июл-17

Зарубежные фильмы до 2016 ·· Логан / Logan (Джеймс Мэнголд / James Mangold) [2017, США, фантастика, боевик, триллер, драма, BDRip 720p] [Noir Edition / Нуар издание] Dub + MVO + 2x VO + Ukr + Sub (Rus, Ukr, Eng) + Original Eng Galfimbul 97216523209.05 GB 0 0 1499405692

08:34

7-Июл-17

Зарубежные фильмы до 2016 ·· Логан / Logan (Джеймс Мэнголд / James Mangold) [2017, США, фантастика, боевик, триллер, драма, BD> DVD9 (Custom)] DUB + DTS + Sub Rus / Eng + Original Eng Galfimbul 83962265607.82 GB 0 0 1499285170

23:06

5-Июл-17

Зарубежные фильмы до 2016 ·· Логан / Logan (Джеймс Мэнголд / James Mangold) [2017, США, фантастика, боевик, триллер, BDRip 720p] Dub + 2x VO (Есарев, Чадов) + Original + Commentary + Sub (Rus, Eng) Galfimbul 73758188876.87 GB 0 0 1499105428

21:10

3-Июл-17

Зарубежные фильмы до 2016 ·· Логан / Logan (Джеймс Мэнголд / James Mangold) [2017, США, фантастика, боевик, триллер, драма, BDRemux 1080p] Dub + 2xVO + MVO + Sub Rus, Eng + Original Eng Galfimbul 3784539772035.25 GB 0 0 1499088930

16:35

3-Июл-17

Зарубежные фильмы 2016-2019 (Новинки зарубежного кино) ·· Логан / Logan (2017) BDRip от HQCLUB [Noir Edition] Лицензия Galfimbul 31250126512.91 GB 0 0 1498963212

05:40

2-Июл-17

Зарубежные фильмы 2016-2019 (Новинки зарубежного кино) ·· Логан / Logan (Джеймс Мэнголд / James Mangold) [2017, США, фантастика, боевик, триллер, драма, Blu-Ray EUR 1080p] Лицензия Galfimbul 4932840258345.94 GB 0 0 1498819247

13:40

30-Июн-17

Зарубежные фильмы до 2016 ·· Логан / Logan (Джеймс Мэнголд / James Mangold) [2017, США, фантастика, боевик, триллер, драма, Blu-ray disc 1080p] [EUR] Dub + Sub Rus, Eng + Original Eng Galfimbul 4932840258345.94 GB 1 1 1498761536

21:38

29-Июн-17

Зарубежные фильмы 2016-2019 (Новинки зарубежного кино) ·· Логан / Logan (Джеймс Мэнголд / James Mangold) [2017, США, фантастика, боевик, триллер, BDRip] Лицензия Galfimbul 15668387841.46 GB 0 0 1498725060

11:31

29-Июн-17

Зарубежные фильмы 2016-2019 (Новинки зарубежного кино) ·· Логан / Logan (Джеймс Мэнголд / James Mangold) [2017, США, фантастика, боевик, триллер, BDRip-AVC] Dub + Original + Sub (rus, eng) Galfimbul 23194501422.16 GB 0 0 1496955716

00:01

9-Июн-17

Зарубежные фильмы 2016-2019 (Новинки зарубежного кино) ·· Логан / Logan (Джеймс Мэнголд / James Mangold) [2017, США, фантастика, боевик, триллер, HDRip-AVC] Dub + Sub (rus, ukr, eng) Galfimbul 15701650211.46 GB 0 0 1496955710

00:01

9-Июн-17

Зарубежные фильмы 2016-2019 (Новинки зарубежного кино) ·· Логан / Logan (Мэнголд / James Mangold) [2017, США, фантастика, боевик, триллер, драма, BDRip-AVC] [Noir Edition] Dub + Sub Rus, Eng + Original Eng Galfimbul 38823322423.62 GB 0 0 1496596215

20:10

4-Июн-17

Зарубежные фильмы 2016-2019 (Новинки зарубежного кино) ·· Логан / Logan (Джеймс Мэнголд / James Mangold) [2017, США, фантастика, боевик, триллер, HDRip] Dub + Original (Eng) + Sub (rus, eng) Galfimbul 23490930352.19 GB 0 0 1496211109

09:11

31-Май-17

Зарубежные фильмы 2016-2019 (Новинки зарубежного кино) ·· Логан / Logan (Джеймс Мэнголд / James Mangold) [2017, США, фантастика, боевик, триллер, HDRip-AVC] Dub + Sub (rus, ukr, eng) Galfimbul 782120404746 MB 0 0 1496169878

21:44

30-Май-17

Еще никто не оставлял запись к записи скачать торрент Логан Logan . Будь первым!

!Обратная связь