Скачать через торрент Логан Logan Фильм бесплатно в хорошем качестве torrent

Скачивайте на UnionPeer.org фильмы через торрент без регистрации. Новинки кино в хорошем качестве через торрент. На UnionPeer.org можно скачать через торрент фильмы 2014 и 2015 годов. Самые новые фильмы.

Скачать торрент Логан Logan бесплатно через .torrent фильм мультфильм сериал

Статистика раздачи
Размер:  6.23 GB   |    Зарегистрирован:  4 года 2 месяца   |    .torrent скачан:  26 раз   |   
Раздают:  1  
 

Скачать Логан / Logan (2017) BDRip-HEVC 1080p от HEVC-CLUB | D через torrent

 
 
Автор Сообщение

Galfimbul

avatar Galfimbul


Год выхода: 2017
Страна / Студия: США / Twentieth Century Fox, Marvel Entertainment, TSG Entertainment
Жанр: фантастика, боевик, триллер, драма
Продолжительность: 02:17:23
Перевод: Дублированный

Режиссер: Джеймс Мэнголд
В ролях: Хью Джекман, Патрик Стюарт, Дафни Кин, Бойд Холбрук, Стивен Мерчант, Элизабет Родригес

Описание: В недалеком будущем уставший от жизни Логан заботится о больном профессоре Икс, который прячется неподалеку от мексиканской границы. Но Логан больше не сможет скрывать свое прошлое, когда встретится с юным мутантом, которого преследуют темные силы.

Качество: BDRip 1080p
Видео: HEVC/H.265, 1920x804, ~5083 Kbps
Аудио 1: DTS, 6 ch, 768 Kbps - Русский, дублированный
Аудио 2: AC3, 6 ch, 640 Kbps - Английский
Субтитры: Русские (форсированные, полные), английские


<span style="color:black;">
Общее
Уникальный идентификатор : 323442241087981812455934653034523155670 (0xF354B5B17648DA1DBCB8302F523A5CD6)
Полное имя : R:Логан. 2017. 1080p. HEVC. 10 bit..mkv
Формат : Matroska
Версия формата : Version 4 / Version 2
Размер файла : 6,23 Гбайт
Продолжительность : 2 ч. 17 м.
Общий поток : 6495 Кбит/сек
Дата кодирования : UTC 2018-11-23 07:46:34
Программа кодирования : mkvmerge v28.2.0 ('The Awakening') 64-bit
Библиотека кодирования : libebml v1.3.6 + libmatroska v1.4.9
Обложка : Yes
Attachments : cover.jpg

Видео
Идентификатор : 1
Формат : HEVC
Формат/Информация : High Efficiency Video Coding
Профиль формата : Main [email protected]@High
Идентификатор кодека : V_MPEGH/ISO/HEVC
Продолжительность : 2 ч. 17 м.
Битрейт : 5083 Кбит/сек
Ширина : 1920 пикселей
Высота : 804 пикселя
Соотношение сторон : 2,40:1
Режим частоты кадров : Постоянный
Частота кадров : 23,976 (24000/1001) кадра/сек
Цветовое пространство : YUV
Субдискретизация насыщенности : 4:2:0
Битовая глубина : 10 бит
Бит/(Пиксели*Кадры) : 0.137
Размер потока : 4,88 Гбайт (78%)
Библиотека кодирования : x265 2.8+74-fd517ae68f93:[Windows][GCC 7.3.0][64 bit] 10bit
Настройки программы : cpuid=1111039 / frame-threads=13 / numa-pools=12 / wpp / no-pmode / no-pme / no-psnr / no-ssim / log-level=3 / input-csp=1 / input-res=1920x804 / interlace=0 / total-frames=0 / level-idc=41 / high-tier=1 / uhd-bd=0 / ref=5 / allow-non-conformance / no-repeat-headers / annexb / no-aud / no-hrd / info / hash=0 / no-temporal-layers / open-gop / min-keyint=24 / keyint=240 / gop-lookahead=0 / bframes=13 / b-adapt=2 / b-pyramid / bframe-bias=0 / rc-lookahead=60 / lookahead-slices=4 / scenecut=40 / radl=0 / no-intra-refresh / ctu=32 / min-cu-size=8 / rect / amp / max-tu-size=32 / tu-inter-depth=4 / tu-intra-depth=4 / limit-tu=1 / rdoq-level=1 / dynamic-rd=0.00 / no-ssim-rd / signhide / no-tskip / nr-intra=0 / nr-inter=0 / no-constrained-intra / no-strong-intra-smoothing / max-merge=4 / limit-refs=2 / limit-modes / me=3 / subme=7 / merange=57 / temporal-mvp / weightp / weightb / no-analyze-src-pics / deblock=-3:-3 / no-sao / no-sao-non-deblock / rd=6 / no-early-skip / no-rskip / no-fast-intra / no-tskip-fast / no-cu-lossless / no-b-intra / no-splitrd-skip / rdpenalty=0 / psy-rd=1.00 / psy-rdoq=1.00 / no-rd-refine / no-lossless / cbqpoffs=0 / crqpoffs=0 / rc=crf / crf=20.0 / qcomp=0.70 / qpstep=1 / stats-write=0 / stats-read=0 / vbv-maxrate=50000 / vbv-bufsize=50000 / vbv-init=0.9 / crf-max=30.0 / crf-min=0.0 / ipratio=1.40 / pbratio=1.30 / aq-mode=1 / aq-strength=1.00 / no-cutree / zone-count=0 / no-strict-cbr / qg-size=32 / no-rc-grain / qpmax=69 / qpmin=0 / no-const-vbv / sar=1 / overscan=0 / videoformat=5 / range=0 / colorprim=2 / transfer=2 / colormatrix=2 / chromaloc=0 / display-window=0 / max-cll=0,0 / min-luma=0 / max-luma=1023 / log2-max-poc-lsb=8 / vui-timing-info / vui-hrd-info / slices=1 / no-opt-qp-pps / no-opt-ref-list-length-pps / no-multi-pass-opt-rps / scenecut-bias=0.05 / no-opt-cu-delta-qp / no-aq-motion / no-hdr / no-hdr-opt / no-dhdr10-opt / no-idr-recovery-sei / analysis-reuse-level=5 / scale-factor=0 / refine-intra=0 / refine-inter=0 / refine-mv=0 / no-limit-sao / ctu-info=0 / no-lowpass-dct / refine-mv-type=0 / copy-pic=1 / max-ausize-factor=1.0 / no-dynamic-refine / no-single-sei
Default : Да
Forced : Нет

Аудио #1
Идентификатор : 2
Формат : DTS
Формат/Информация : Digital Theater Systems
Идентификатор кодека : A_DTS
Продолжительность : 2 ч. 17 м.
Вид битрейта : Постоянный
Битрейт : 768 Кбит/сек
Каналы : 6 каналов
Расположение каналов : Front: L C R, Side: L R, LFE
Частота : 48,0 КГц
Частота кадров : 93,750 кадра/сек (512 SPF)
Битовая глубина : 24 бит
Метод сжатия : С потерями
Размер потока : 755 Мбайт (12%)
Заголовок : DTS Rusiian Dub
Язык : Russian
Default : Да
Forced : Нет

Аудио #2
Идентификатор : 3
Формат : AC-3
Формат/Информация : Audio Coding 3
Идентификатор кодека : A_AC3
Продолжительность : 2 ч. 17 м.
Вид битрейта : Постоянный
Битрейт : 640 Кбит/сек
Каналы : 6 каналов
Расположение каналов : Front: L C R, Side: L R, LFE
Частота : 48,0 КГц
Частота кадров : 31,250 кадров/сек (1536 SPF)
Битовая глубина : 16 бит
Метод сжатия : С потерями
Размер потока : 629 Мбайт (10%)
Заголовок : DD Audio 640 kbps
Язык : English
ServiceKind/Strin : Complete Main
Default : Нет
Forced : Нет

Текст #1
Идентификатор : 4
Формат : UTF-8
Идентификатор кодека : S_TEXT/UTF8
Идентификатор кодека/Информация : UTF-8 Plain Text
Продолжительность : 2 ч. 15 м.
Битрейт : 0 бит/сек
ElementCount : 4
Размер потока : 120 байт (0%)
Заголовок : Forced
Язык : Russian
Default : Да
Forced : Нет

Текст #2
Идентификатор : 5
Формат : UTF-8
Идентификатор кодека : S_TEXT/UTF8
Идентификатор кодека/Информация : UTF-8 Plain Text
Продолжительность : 2 ч. 16 м.
Битрейт : 60 бит/сек
ElementCount : 1378
Размер потока : 60,1 Кбайт (0%)
Язык : Russian
Default : Нет
Forced : Нет

Текст #3
Идентификатор : 6
Формат : UTF-8
Идентификатор кодека : S_TEXT/UTF8
Идентификатор кодека/Информация : UTF-8 Plain Text
Продолжительность : 2 ч. 13 м.
Битрейт : 41 бит/сек
ElementCount : 1555
Размер потока : 40,7 Кбайт (0%)
Заголовок : Full
Язык : English
Default : Нет
Forced : Нет

Меню
00:00:00.000 : en:(01)00:00:00:000
00:05:35.125 : en:(02)00:05:35:125
00:09:18.557 : en:(03)00:09:18:557
00:11:41.158 : en:(04)00:11:41:158
00:16:23.231 : en:(05)00:16:23:231
00:20:11.666 : en:(06)00:20:11:666
00:24:26.714 : en:(07)00:24:26:714
00:26:11.903 : en:(08)00:26:11:903
00:30:13.310 : en:(09)00:30:13:310
00:31:59.125 : en:(10)00:31:59:125
00:34:56.885 : en:(11)00:34:56:885
00:39:53.431 : en:(12)00:39:53:431
00:42:55.572 : en:(13)00:42:55:572
00:45:03.826 : en:(14)00:45:03:826
00:47:53.411 : en:(15)00:47:53:411
00:49:39.559 : en:(16)00:49:39:559
00:52:14.422 : en:(17)00:52:14:422
00:54:30.516 : en:(18)00:54:30:516
00:57:44.210 : en:(19)00:57:44:210
01:00:10.398 : en:(20)01:00:10:398
01:03:53.829 : en:(21)01:03:53:829
01:06:55.510 : en:(22)01:06:55:510
01:09:54.773 : en:(23)01:09:54:773
01:13:15.890 : en:(24)01:13:15:890
01:18:43.591 : en:(25)01:18:43:591
01:21:50.904 : en:(26)01:21:50:904
01:25:52.188 : en:(27)01:25:52:188
01:28:38.813 : en:(28)01:28:38:813
01:32:41.430 : en:(29)01:32:41:430
01:35:29.724 : en:(30)01:35:29:724
01:41:03.431 : en:(31)01:41:03:431
01:43:39.880 : en:(32)01:43:39:880
01:49:38.988 : en:(33)01:49:38:988
01:54:20.561 : en:(34)01:54:20:561
01:57:00.430 : en:(35)01:57:00:430
01:59:20.403 : en:(36)01:59:20:403
02:01:14.432 : en:(37)02:01:14:432
02:05:09.627 : en:(38)02:05:09:627
02:06:40.551 : en:(39)02:06:40:551
02:11:07.859 : en:(40)02:11:07:859
02:17:23.025 : en:(41)02:17:23:025

Источник http://BlaTor.org

Внимание! AdBlock блокирует показ скриншотов, все вопросы к разработчикам )))
Трекер:  [ 06-Дек-2019 14:20 ]

  

Скачать .torrent

Размер .torrent файла 31 KB


Размер: 6.23 GB
Хэш (hash) релиза: 299513d73cd4125dcc47c1b5f1b145dbc501b9fd
Подписка на обновления:

Торренты, похожие на Логан Logan скачать торрент

Форум Название Автор Размер S L Добавлен
Зарубежные фильмы 2016-2019 (Новинки зарубежного кино) ·%· Логан / Logan (2017) UHD BDRip-HEVC 2160p | 4K | HDR | D, P, A Galfimbul 1931670686617.99 GB 0 0 1557567008

12:30

11-Май-19

Зарубежные фильмы до 2016 ·· Логан / Logan (Джеймс Мэнголд / James Mangold) [2017, США, Фантастика, боевик, триллер, драма, DVD9] R5 Dub + Sub Rus + Original Eng Galfimbul 74236702726.91 GB 0 0 1527093055

19:30

23-Май-18

Зарубежные фильмы 2016-2019 (Новинки зарубежного кино) ·· Логан / Logan (Джеймс Мэнголд / James Mangold) [2017, США, фантастика, боевик, триллер, BDRip] AVO (Юрий Живов) Galfimbul 23283118082.17 GB 0 0 1511191824

18:30

20-Ноя-17

Трейлеры и дополнительные материалы ·· Логан / Logan (Джеймс Мэнголд) [2017, Фантастика | Боевик | Триллер | Драма, BDRip 720p] дополнительные материалы Galfimbul 26828124092.5 GB 0 0 1500199695

13:08

16-Июл-17

Зарубежные фильмы до 2016 ·· Логан / Logan (Джеймс Мэнголд / James Mangold) [2017, США, фантастика, боевик, триллер, драма, BD> DVD5(Custom)] DUB + Sub Rus / Eng + Original Eng Galfimbul 46898913284.37 GB 0 0 1499589367

11:36

9-Июл-17

Зарубежные фильмы до 2016 ·· Логан / Logan (Джеймс Мэнголд / James Mangold) [2017, США, фантастика, боевик, триллер, драма, BDRip 720p] [Noir Edition / Нуар издание] Dub + MVO + 2x VO + Ukr + Sub (Rus, Ukr, Eng) + Original Eng Galfimbul 97216523209.05 GB 0 0 1499405692

08:34

7-Июл-17

Зарубежные фильмы до 2016 ·· Логан / Logan (Джеймс Мэнголд / James Mangold) [2017, США, фантастика, боевик, триллер, драма, BD> DVD9 (Custom)] DUB + DTS + Sub Rus / Eng + Original Eng Galfimbul 83962265607.82 GB 0 0 1499285170

23:06

5-Июл-17

Зарубежные фильмы до 2016 ·· Логан / Logan (Джеймс Мэнголд / James Mangold) [2017, США, фантастика, боевик, триллер, BDRip 720p] Dub + 2x VO (Есарев, Чадов) + Original + Commentary + Sub (Rus, Eng) Galfimbul 73758188876.87 GB 0 0 1499105428

21:10

3-Июл-17

Зарубежные фильмы до 2016 ·· Логан / Logan (Джеймс Мэнголд / James Mangold) [2017, США, фантастика, боевик, триллер, драма, BDRip 1080p] Dub + MVO (Paradox&Omskbird Records) + VO (Чадов, Есарев) + Sub Rus, Ukr, Eng + Original Eng Galfimbul 1991774761018.55 GB 0 0 1499091315

17:15

3-Июл-17

Зарубежные фильмы до 2016 ·· Логан / Logan (Джеймс Мэнголд / James Mangold) [2017, США, фантастика, боевик, триллер, драма, BDRemux 1080p] Dub + 2xVO + MVO + Sub Rus, Eng + Original Eng Galfimbul 3784539772035.25 GB 0 0 1499088930

16:35

3-Июл-17

Зарубежные фильмы 2016-2019 (Новинки зарубежного кино) ·· Логан / Logan (2017) BDRip от HQCLUB [Noir Edition] Лицензия Galfimbul 31250126512.91 GB 0 0 1498963212

05:40

2-Июл-17

Зарубежные фильмы 2016-2019 (Новинки зарубежного кино) ·· Логан / Logan (Джеймс Мэнголд / James Mangold) [2017, США, фантастика, боевик, триллер, драма, Blu-Ray EUR 1080p] Лицензия Galfimbul 4932840258345.94 GB 0 0 1498819247

13:40

30-Июн-17

Зарубежные фильмы до 2016 ·· Логан / Logan (Джеймс Мэнголд / James Mangold) [2017, США, фантастика, боевик, триллер, драма, Blu-ray disc 1080p] [EUR] Dub + Sub Rus, Eng + Original Eng Galfimbul 4932840258345.94 GB 1 1 1498761536

21:38

29-Июн-17

Зарубежные фильмы 2016-2019 (Новинки зарубежного кино) ·· Логан / Logan (Джеймс Мэнголд / James Mangold) [2017, США, фантастика, боевик, триллер, BDRip] Лицензия Galfimbul 15668387841.46 GB 0 0 1498725060

11:31

29-Июн-17

Зарубежные фильмы 2016-2019 (Новинки зарубежного кино) ·· Логан / Logan (Джеймс Мэнголд / James Mangold) [2017, США, фантастика, боевик, триллер, BDRip-AVC] Dub + Original + Sub (rus, eng) Galfimbul 23194501422.16 GB 0 0 1496955716

00:01

9-Июн-17

Зарубежные фильмы 2016-2019 (Новинки зарубежного кино) ·· Логан / Logan (Джеймс Мэнголд / James Mangold) [2017, США, фантастика, боевик, триллер, HDRip-AVC] Dub + Sub (rus, ukr, eng) Galfimbul 15701650211.46 GB 0 0 1496955710

00:01

9-Июн-17

Зарубежные фильмы 2016-2019 (Новинки зарубежного кино) ·· Логан / Logan (Мэнголд / James Mangold) [2017, США, фантастика, боевик, триллер, драма, BDRip-AVC] [Noir Edition] Dub + Sub Rus, Eng + Original Eng Galfimbul 38823322423.62 GB 0 0 1496596215

20:10

4-Июн-17

Зарубежные фильмы 2016-2019 (Новинки зарубежного кино) ·· Логан / Logan (Джеймс Мэнголд / James Mangold) [2017, США, фантастика, боевик, триллер, HDRip] Dub + Original (Eng) + Sub (rus, eng) Galfimbul 23490930352.19 GB 0 0 1496211109

09:11

31-Май-17

Зарубежные фильмы 2016-2019 (Новинки зарубежного кино) ·· Логан / Logan (Джеймс Мэнголд / James Mangold) [2017, США, фантастика, боевик, триллер, HDRip-AVC] Dub + Sub (rus, ukr, eng) Galfimbul 782120404746 MB 0 0 1496169878

21:44

30-Май-17

Еще никто не оставлял запись к записи скачать торрент Логан Logan . Будь первым!

!Обратная связь