Logan torrent

UnionPeer.org . . UnionPeer.org 2014 2015 . .

Logan .torrent

9.05 GB   |    :  6 7    |    .torrent :  114    |   
1  
   
 

Galfimbul

avatar Galfimbul


/ Logan
Noir Edition

:
: 20th Century Fox Film Corporation, Donners' Company, Kinberg Genre, Marvel Entertainment, TSG Entertainment
: , , ,
: 2017
: 02:17:23
:

1: () CPIG | BD CEE
2: (, ) Paradox & Omskbird Records
3: , . [ ]
4: , . [ ]
: (, 2), (, ), (, SDH)
:

: / James Mangold
: , , , ...
: , , , , , , . , , , .

: , . , , .

- 17


. : Blu-ray Disk 1080p.
Blu-ray Disk.
DTS-HD MA AC3@640kbps (, MVO, 2xVO).
Icons Edition . Fox Icons. ... <img class="smile" src="//static.t-ru.org/smiles/icon_cool.gif" alt="">

<div class="post-box"> - </div>

<div class="post-box">SCREENSHOTCOMPARISON</div>

<div class="post-box"> </div>
<div class="post-box"> </div>

: BDRip 720p | FRANKiE13
: MKV

: x.264 / 5 449 kbps / 1280x536 / 23,976 fps / 2.40:1 / [email protected]
01: RUS / DTS / 5.1 / 48 kHz / 768 kbps / CPIG
02: RUS / AC3 / 5.1 / 48 kHz / 640 kbps / Paradox & Omskbird Records
03: RUS / AC3 / 5.1 / 48 kHz / 640 kbps / .
04: RUS / AC3 / 5.1 / 48 kHz / 640 kbps / .
05: UKR / AC3 / 5.1 / 48 kHz / 448 kbps /
06: ENG / AC3 / 5.1 / 48 kHz / 640 kbps /
07: ENG / AC3 / 2.0 / 48 kHz / 224 kbps /
: SoftSub (.srt)
General
Format : Matroska
Format version : Version 4 / Version 2
File size : 9.05 GiB
Duration : 2 h 17 min
Overall bit rate : 9 435 kb/s
Movie name : Logan (2017) NOIR EDITION - FRANKiE13
Encoded date : UTC 2017-07-05 19:05:46
Writing application : mkvmerge v9.9.0 ('Pick Up') 64bit
Writing library : libebml v1.3.4 + libmatroska v1.4.5
Cover : Yes
Attachments : cover

Video
ID : 1
Format : AVC
Format/Info : Advanced Video Codec
Format profile : [email protected]
Format settings, CABAC : Yes
Format settings, ReFrames : 12 frames
Codec ID : V_MPEG4/ISO/AVC
Duration : 2 h 17 min
Bit rate : 5 449 kb/s
Width : 1 280 pixels
Height : 536 pixels
Display aspect ratio : 2.40:1
Frame rate mode : Constant
Frame rate : 23.976 (24000/1001) FPS
Color space : YUV
Chroma subsampling : 4:2:0
Bit depth : 8 bits
Scan type : Progressive
Bits/(Pixel*Frame) : 0.331
Stream size : 5.21 GiB (58%)
Title : Logan 2017 NOIR EDITION - Encoded by FRANKiE13
Writing library : x264 core 148 r2744 b97ae06
Encoding settings : cabac=1 / ref=12 / deblock=1:-3:-3 / analyse=0x3:0x133 / me=umh / subme=11 / psy=1 / psy_rd=1.00:0.15 / mixed_ref=1 / me_range=48 / chroma_me=1 / trellis=2 / 8x8dct=1 / cqm=0 / deadzone=21,11 / fast_pskip=1 / chroma_qp_offset=-3 / threads=16 / lookahead_threads=4 / sliced_threads=0 / nr=0 / decimate=1 / interlaced=0 / bluray_compat=0 / constrained_intra=0 / bframes=11 / b_pyramid=2 / b_adapt=2 / b_bias=0 / direct=3 / weightb=1 / open_gop=0 / weightp=2 / keyint=240 / keyint_min=23 / scenecut=40 / intra_refresh=0 / rc_lookahead=60 / rc=2pass / mbtree=0 / bitrate=5449 / ratetol=1.0 / qcomp=0.60 / qpmin=10 / qpmax=51 / qpstep=4 / cplxblur=20.0 / qblur=0.5 / vbv_maxrate=50000 / vbv_bufsize=62500 / nal_hrd=none / filler=0 / ip_ratio=1.40 / pb_ratio=1.30 / aq=1:0.80
Language : English
Default : Yes
Forced : No

Audio #1
ID : 2
Format : DTS
Format/Info : Digital Theater Systems
Mode : 16
Format settings, Endianness : Big
Codec ID : A_DTS
Duration : 2 h 17 min
Bit rate mode : Constant
Bit rate : 768 kb/s
Channel(s) : 6 channels
Channel positions : Front: L C R, Side: L R, LFE
Sampling rate : 48.0 kHz
Frame rate : 93.750 FPS (512 spf)
Bit depth : 24 bits
Compression mode : Lossy
Stream size : 755 MiB (8%)
Title : , CPIG / BD CEE
Language : Russian
Default : Yes
Forced : No

Audio #2
ID : 3
Format : AC-3
Format/Info : Audio Coding 3
Format settings, Endianness : Big
Codec ID : A_AC3
Duration : 2 h 17 min
Bit rate mode : Constant
Bit rate : 640 kb/s
Channel(s) : 6 channels
Channel positions : Front: L C R, Side: L R, LFE
Sampling rate : 48.0 kHz
Frame rate : 31.250 FPS (1536 spf)
Bit depth : 16 bits
Compression mode : Lossy
Stream size : 628 MiB (7%)
Title : , Paradox&Omskbird Records
Language : Russian
Service kind : Complete Main
Default : No
Forced : No

Audio #3
ID : 4
Format : AC-3
Format/Info : Audio Coding 3
Format settings, Endianness : Big
Codec ID : A_AC3
Duration : 2 h 17 min
Bit rate mode : Constant
Bit rate : 640 kb/s
Channel(s) : 6 channels
Channel positions : Front: L C R, Side: L R, LFE
Sampling rate : 48.0 kHz
Frame rate : 31.250 FPS (1536 spf)
Bit depth : 16 bits
Compression mode : Lossy
Stream size : 628 MiB (7%)
Title : , .
Language : Russian
Service kind : Complete Main
Default : No
Forced : No

Audio #4
ID : 5
Format : AC-3
Format/Info : Audio Coding 3
Format settings, Endianness : Big
Codec ID : A_AC3
Duration : 2 h 17 min
Bit rate mode : Constant
Bit rate : 640 kb/s
Channel(s) : 6 channels
Channel positions : Front: L C R, Side: L R, LFE
Sampling rate : 48.0 kHz
Frame rate : 31.250 FPS (1536 spf)
Bit depth : 16 bits
Compression mode : Lossy
Stream size : 628 MiB (7%)
Title : , .
Language : Russian
Service kind : Complete Main
Default : No
Forced : No

Audio #5
ID : 6
Format : AC-3
Format/Info : Audio Coding 3
Format settings, Endianness : Big
Codec ID : A_AC3
Duration : 2 h 17 min
Bit rate mode : Constant
Bit rate : 448 kb/s
Channel(s) : 6 channels
Channel positions : Front: L C R, Side: L R, LFE
Sampling rate : 48.0 kHz
Frame rate : 31.250 FPS (1536 spf)
Bit depth : 16 bits
Compression mode : Lossy
Stream size : 440 MiB (5%)
Title : / BD CEE
Language : Ukrainian
Service kind : Complete Main
Default : No
Forced : No

Audio #6
ID : 7
Format : AC-3
Format/Info : Audio Coding 3
Format settings, Endianness : Big
Codec ID : A_AC3
Duration : 2 h 17 min
Bit rate mode : Constant
Bit rate : 640 kb/s
Channel(s) : 6 channels
Channel positions : Front: L C R, Side: L R, LFE
Sampling rate : 48.0 kHz
Frame rate : 31.250 FPS (1536 spf)
Bit depth : 16 bits
Compression mode : Lossy
Stream size : 628 MiB (7%)
Title :
Language : English
Service kind : Complete Main
Default : No
Forced : No

Audio #7
ID : 8
Format : AC-3
Format/Info : Audio Coding 3
Format settings, Endianness : Big
Codec ID : A_AC3
Duration : 2 h 17 min
Bit rate mode : Constant
Bit rate : 224 kb/s
Channel(s) : 2 channels
Channel positions : Front: L R
Sampling rate : 48.0 kHz
Frame rate : 31.250 FPS (1536 spf)
Bit depth : 16 bits
Compression mode : Lossy
Stream size : 220 MiB (2%)
Title :
Language : English
Service kind : Complete Main
Default : No
Forced : No

Text #1
ID : 9
Format : UTF-8
Codec ID : S_TEXT/UTF8
Codec ID/Info : UTF-8 Plain Text
Duration : 1 h 38 min
Bit rate : 0 b/s
Count of elements : 3
Stream size : 73.0 Bytes (0%)
Title : Forced
Language : Russian
Default : Yes
Forced : No

Text #2
ID : 10
Format : UTF-8
Codec ID : S_TEXT/UTF8
Codec ID/Info : UTF-8 Plain Text
Duration : 2 h 16 min
Bit rate : 60 b/s
Count of elements : 1378
Stream size : 60.1 KiB (0%)
Title : Full
Language : Russian
Default : No
Forced : No

Text #3
ID : 11
Format : UTF-8
Codec ID : S_TEXT/UTF8
Codec ID/Info : UTF-8 Plain Text
Duration : 2 h 10 min
Bit rate : 68 b/s
Count of elements : 1351
Stream size : 65.2 KiB (0%)
Title : Full / Voronine
Language : Russian
Default : No
Forced : No

Text #4
ID : 12
Format : UTF-8
Codec ID : S_TEXT/UTF8
Codec ID/Info : UTF-8 Plain Text
Duration : 2 h 17 min
Bit rate : 153 b/s
Count of elements : 2030
Stream size : 154 KiB (0%)
Title :
Language : Russian
Default : No
Forced : No

Text #5
ID : 13
Format : UTF-8
Codec ID : S_TEXT/UTF8
Codec ID/Info : UTF-8 Plain Text
Duration : 1 h 38 min
Bit rate : 0 b/s
Count of elements : 3
Stream size : 80.0 Bytes (0%)
Title : Forced
Language : Ukrainian
Default : No
Forced : No

Text #6
ID : 14
Format : UTF-8
Codec ID : S_TEXT/UTF8
Codec ID/Info : UTF-8 Plain Text
Duration : 2 h 16 min
Bit rate : 59 b/s
Count of elements : 1385
Stream size : 59.5 KiB (0%)
Title : Full
Language : Ukrainian
Default : No
Forced : No

Text #7
ID : 15
Format : UTF-8
Codec ID : S_TEXT/UTF8
Codec ID/Info : UTF-8 Plain Text
Duration : 2 h 13 min
Bit rate : 41 b/s
Count of elements : 1555
Stream size : 40.8 KiB (0%)
Title : Full
Language : English
Default : No
Forced : No

Text #8
ID : 16
Format : UTF-8
Codec ID : S_TEXT/UTF8
Codec ID/Info : UTF-8 Plain Text
Duration : 2 h 13 min
Bit rate : 49 b/s
Count of elements : 1951
Stream size : 48.7 KiB (0%)
Title : Full SDH
Language : English
Default : No
Forced : No

Menu
00:00:00.000 : en:00:00:00.000
00:05:35.126 : en:00:05:35.126
00:09:18.558 : en:00:09:18.558
00:11:41.159 : en:00:11:41.159
00:16:23.232 : en:00:16:23.232
00:20:11.669 : en:00:20:11.669
00:24:26.715 : en:00:24:26.715
00:26:11.904 : en:00:26:11.904
00:30:13.311 : en:00:30:13.311
00:31:59.126 : en:00:31:59.126
00:34:56.886 : en:00:34:56.886
00:39:53.433 : en:00:39:53.433
00:42:55.573 : en:00:42:55.573
00:45:03.826 : en:00:45:03.826
00:47:53.412 : en:00:47:53.412
00:49:39.560 : en:00:49:39.560
00:52:14.423 : en:00:52:14.423
00:54:30.517 : en:00:54:30.517
00:57:44.211 : en:00:57:44.211
01:00:10.398 : en:01:00:10.398
01:03:53.830 : en:01:03:53.830
01:06:55.511 : en:01:06:55.511
01:09:54.774 : en:01:09:54.774
01:13:15.891 : en:01:13:15.891
01:18:43.594 : en:01:18:43.594
01:21:50.906 : en:01:21:50.906
01:25:52.189 : en:01:25:52.189
01:28:38.813 : en:01:28:38.813
01:32:41.431 : en:01:32:41.431
01:35:29.724 : en:01:35:29.724
01:41:03.432 : en:01:41:03.432
01:43:39.880 : en:01:43:39.880
01:49:38.989 : en:01:49:38.989
01:54:20.562 : en:01:54:20.562
01:57:00.430 : en:01:57:00.430
01:59:20.403 : en:01:59:20.403
02:01:14.434 : en:02:01:14.434
02:05:09.627 : en:02:05:09.627
02:06:40.551 : en:02:06:40.551
02:11:07.860 : en:02:11:07.860
( ), ( ) -23 ( -, ).
, R (, 17- , ).
, , . , : (2014) : (2016).
, ( ). : 2006 .
, R ( 17 ) (2016), PG-13 ( 13 ). , .
, () : . (2009), .
, -23.
. : (2016) .
.
. . (2004), (1992).
, , : . (2009) : (2013). , 2014 : .
, , .
, . .
.
-.
, .
(1992), (2008) (1953). .
, .


! AdBlock , )))
 ·  , , FAQ-
:  [ 07--2017 08:30 ]

  

.torrent

.torrent 23 KB


: 9.05 GB
(hash) : 92bd930b889b6e8206f91151c3d82814d8e11769
:
··
...

, Logan

S L
2016-2019 ( ) ·%·  / Logan (2017) BDRip-HEVC 1080p HEVC-CLUB | D Galfimbul 66921638816.23 GB 0 0 1575631212

14:20

6--19

2016-2019 ( ) ·%·  / Logan (2017) UHD BDRip-HEVC 2160p | 4K | HDR | D, P, A Galfimbul 1931670686617.99 GB 0 0 1557567008

12:30

11--19

2016 ··  / Logan ( / James Mangold) [2017, , , , , , DVD9] R5 Dub + Sub Rus + Original Eng Galfimbul 74236702726.91 GB 0 0 1527093055

19:30

23--18

2016-2019 ( ) ··  / Logan ( / James Mangold) [2017, , , , , BDRip] AVO ( ) Galfimbul 23283118082.17 GB 0 0 1511191824

18:30

20--17

··  / Logan ( ) [2017, | | | , BDRip 720p] Galfimbul 26828124092.5 GB 0 0 1500199695

13:08

16--17

2016 ··  / Logan ( / James Mangold) [2017, , , , , , BD> DVD5(Custom)] DUB + Sub Rus / Eng + Original Eng Galfimbul 46898913284.37 GB 0 0 1499589367

11:36

9--17

2016 ··  / Logan ( / James Mangold) [2017, , , , , , BD> DVD9 (Custom)] DUB + DTS + Sub Rus / Eng + Original Eng Galfimbul 83962265607.82 GB 0 0 1499285170

23:06

5--17

2016 ··  / Logan ( / James Mangold) [2017, , , , , BDRip 720p] Dub + 2x VO (, ) + Original + Commentary + Sub (Rus, Eng) Galfimbul 73758188876.87 GB 0 0 1499105428

21:10

3--17

2016 ··  / Logan ( / James Mangold) [2017, , , , , , BDRip 1080p] Dub + MVO (Paradox&Omskbird Records) + VO (, ) + Sub Rus, Ukr, Eng + Original Eng Galfimbul 1991774761018.55 GB 0 0 1499091315

17:15

3--17

2016 ··  / Logan ( / James Mangold) [2017, , , , , , BDRemux 1080p] Dub + 2xVO + MVO + Sub Rus, Eng + Original Eng Galfimbul 3784539772035.25 GB 0 0 1499088930

16:35

3--17

2016-2019 ( ) ··  / Logan (2017) BDRip HQCLUB [Noir Edition] Galfimbul 31250126512.91 GB 0 0 1498963212

05:40

2--17

2016-2019 ( ) ··  / Logan ( / James Mangold) [2017, , , , , , Blu-Ray EUR 1080p] Galfimbul 4932840258345.94 GB 0 0 1498819247

13:40

30--17

2016 ··  / Logan ( / James Mangold) [2017, , , , , , Blu-ray disc 1080p] [EUR] Dub + Sub Rus, Eng + Original Eng Galfimbul 4932840258345.94 GB 1 1 1498761536

21:38

29--17

2016-2019 ( ) ··  / Logan ( / James Mangold) [2017, , , , , BDRip] Galfimbul 15668387841.46 GB 0 0 1498725060

11:31

29--17

2016-2019 ( ) ··  / Logan ( / James Mangold) [2017, , , , , BDRip-AVC] Dub + Original + Sub (rus, eng) Galfimbul 23194501422.16 GB 0 0 1496955716

00:01

9--17

2016-2019 ( ) ··  / Logan ( / James Mangold) [2017, , , , , HDRip-AVC] Dub + Sub (rus, ukr, eng) Galfimbul 15701650211.46 GB 0 0 1496955710

00:01

9--17

2016-2019 ( ) ··  / Logan ( / James Mangold) [2017, , , , , , BDRip-AVC] [Noir Edition] Dub + Sub Rus, Eng + Original Eng Galfimbul 38823322423.62 GB 0 0 1496596215

20:10

4--17

2016-2019 ( ) ··  / Logan ( / James Mangold) [2017, , , , , HDRip] Dub + Original (Eng) + Sub (rus, eng) Galfimbul 23490930352.19 GB 0 0 1496211109

09:11

31--17

2016-2019 ( ) ··  / Logan ( / James Mangold) [2017, , , , , HDRip-AVC] Dub + Sub (rus, ukr, eng) Galfimbul 782120404746 MB 0 0 1496169878

21:44

30--17

Logan . !

!