Скачать через торрент Прочь Get Out Фильм бесплатно в хорошем качестве torrent

Скачивайте на UnionPeer.org фильмы через торрент без регистрации. Новинки кино в хорошем качестве через торрент. На UnionPeer.org можно скачать через торрент фильмы 2014 и 2015 годов. Самые новые фильмы.

Скачать торрент Прочь Get Out бесплатно через .torrent фильм мультфильм сериал

Статистика раздачи
Размер:  749 MB   |    Зарегистрирован:  6 лет 7 месяцев   |    .torrent скачан:  128 раз   |   
Раздают:  1  
 

Скачать Прочь / Get Out (Джордан Пил / Jordan Peele) [2017, США, ужасы, детектив, BDRip] Dub через torrent

 
 
Автор Сообщение

Galfimbul

avatar Galfimbul


Прочь / Get Out
«Знакомство с родителями не всегда заканчивается свадьбой»
Страна: США
Жанр: ужасы, детектив
Год выпуска: 2017
Продолжительность: 01:44:05Перевод: Профессиональный (дублированный) iTunes
Субтитры: нет
Оригинальная аудиодорожка: нетРежиссер: Джордан Пил / Jordan PeeleВ ролях: Дэниэл Калуя, Эллисон Уильямс, Кэтрин Кинер, Брэдли Уитфорд, Калеб Лэндри Джонс, Маркус Хендерсон, Бетти ГэбриелОписание: Знакомство с родителями подружки не предвещает молодому фотографу из Нью-Йорка ничего хорошего, ведь семья девушки принадлежит к элитному обществу и живет в уединенном загородном доме. Если бы он только знал истинную причину своего приглашения, то немедленно бросился бы прочь… Качество видео: BDRip / Get.Out.2017.BluRay.1080p.AVC.DTS-HD.MA5.1-CHD
Формат видео: AVIВидео: XviD build 73, 688x288 (2.40:1), 23.976 fps, ~869 kbps avg, 0.183 bit/pixel
Аудио: 48 kHz, MP3, 2/0 (L,R) ch, ~128 kbps avg
Complete name : C:\Users\ИВАН\Desktop\Раздачи\Прочь (2017) BDRip_ivanes20031987.avi
Format : AVI
Format/Info : Audio Video Interleave
File size : 749 MiB
Duration : 1 h 44 min
Overall bit rate : 1 006 kb/s
Writing application : VirtualDubMod 1.5.10.3 | www.virtualdub-fr.org || (build 2550/release)
Writing library : VirtualDubMod build 2550/release

Video
ID : 0
Format : MPEG-4 Visual
Format profile : Advanced Simple@L5
Format settings, BVOP : 1
Format settings, QPel : No
Format settings, GMC : No warppoints
Format settings, Matrix : Custom
Codec ID : XVID
Codec ID/Hint : XviD
Duration : 1 h 44 min
Bit rate : 869 kb/s
Width : 688 pixels
Height : 288 pixels
Display aspect ratio : 2.40:1
Frame rate : 23.976 (24000/1001) FPS
Color space : YUV
Chroma subsampling : 4:2:0
Bit depth : 8 bits
Scan type : Progressive
Compression mode : Lossy
Bits/(Pixel*Frame) : 0.183
Stream size : 647 MiB (86%)
Writing library : XviD 73

Audio
ID : 1
Format : MPEG Audio
Format version : Version 1
Format profile : Layer 3
Mode : Joint stereo
Codec ID : 55
Codec ID/Hint : MP3
Duration : 1 h 44 min
Bit rate mode : Constant
Bit rate : 128 kb/s
Channel(s) : 2 channels
Sampling rate : 48.0 kHz
Compression mode : Lossy
Stream size : 95.3 MiB (13%)
Alignment : Aligned on interleaves
Interleave, duration : 42 ms (1.00 video frame)
Interleave, preload duratio : 504 ms
Writing library : LAME3.99r
Encoding settings : -m j -V 4 -q 2 -lowpass 17 -b 128


Внимание! AdBlock блокирует показ скриншотов, все вопросы к разработчикам )))
Трекер:  [ 09-Июл-2017 15:30 ]

  

Скачать .torrent

Размер .torrent файла 15 KB


Размер: 749 MB
Хэш (hash) релиза: bbe14f8f1822df03f414ca1c24d707792d0f3bca
Подписка на обновления:

Торренты, похожие на Прочь Get Out скачать торрент

Форум Название Автор Размер S L Добавлен
Зарубежные фильмы 2016-2019 (Новинки зарубежного кино) ·%· Прочь / Get Out (2017) BDRip 1080p от TeamHD | D, P, A | Лицензия Galfimbul 1644141280615.31 GB 0 0 1545028845

09:40

17-Дек-18

Зарубежные фильмы до 2016 ·%· Прочь / Get Out (Джордан Пил / Jordan Peele) [2017, Япония, США, Ужасы, детектив, триллер, DVD5 (сжатый)] исх. R5, Dub + Sub Rus + Original Eng Galfimbul 46903398404.37 GB 0 0 1531252921

23:02

10-Июл-18

Зарубежные фильмы до 2016 ·· Прочь / Get Out (Джордан Пил / Jordan Peele) [2017, Япония, США, Ужасы, детектив, триллер, DVD9] R5 Dub + Sub Rus + Original Eng Galfimbul 76161167367.09 GB 0 0 1524756655

18:30

26-Апр-18

Зарубежные фильмы 2016-2019 (Новинки зарубежного кино) ·· Прочь / Get Out (Джордан Пил / Jordan Peele) [2017, США, ужасы, детектив, триллер, BDRip] AVO (Андрей Гаврилов) Galfimbul 15814369281.47 GB 0 0 1520420473

14:01

7-Мар-18

Трейлеры и дополнительные материалы ·· Прочь / Get Out (Джордан Пил) [2017, Ужасы | Детектив, BDRip 720p] дополнительные материалы Galfimbul 12704881211.18 GB 0 0 1504512531

11:08

4-Сен-17

Зарубежные фильмы 2016-2019 (Новинки зарубежного кино) ·· Прочь / Get Out (Джордан Пил / Jordan Peele) [2017, США, ужасы, детектив, BDRip] Dub (EUR) + Original (Eng) + Sub (Rus, Eng) Galfimbul 23437387712.18 GB 0 0 1504081810

11:30

30-Авг-17

Зарубежные фильмы 2016-2019 (Новинки зарубежного кино) ·· Прочь / Get Out (Джордан Пил / Jordan Peele) [2017, США, ужасы, детектив, BDRip-AVC] Dub + MVO + Original Eng + Sub Rus, Eng Galfimbul 23361619842.18 GB 0 0 1503849737

19:02

27-Авг-17

Зарубежные фильмы 2016-2019 (Новинки зарубежного кино) ·· Прочь / Get Out (Джордан Пил / Jordan Peele) [2017, США, ужасы, детектив,Blu-Ray CEE 1080p] Лицензия Galfimbul 4257722830639.65 GB 0 0 1503589220

18:40

24-Авг-17

Зарубежные фильмы 2016-2019 (Новинки зарубежного кино) ·· Прочь / Get Out (Джордан Пил / Jordan Peele) [2017, США, ужасы, детектив, BDRip 1080p] Лицензия, P Galfimbul 1401360569713.05 GB 0 0 1503577219

15:20

24-Авг-17

Зарубежные фильмы 2016-2019 (Новинки зарубежного кино) ·· Прочь / Get Out (Джордан Пил / Jordan Peele) [2017, США, ужасы, детектив, BDRip 720p] Лицензия, P Galfimbul 67120299546.25 GB 0 0 1503571211

13:40

24-Авг-17

Зарубежные фильмы 2016-2019 (Новинки зарубежного кино) ·· Прочь / Get Out (Джордан Пил / Jordan Peele) [2017, США, ужасы, детектив, BDRip-AVC] Dub Galfimbul 781529373745 MB 0 0 1499601692

15:01

9-Июл-17

Зарубежные фильмы 2016-2019 (Новинки зарубежного кино) ·· Прочь / Get Out (Джордан Пил / Jordan Peele) [2017, США, ужасы, детектив, BDRip-AVC] Dub Galfimbul 15501911121.44 GB 0 0 1499601686

15:01

9-Июл-17

Зарубежные фильмы до 2016 ·· Прочь / Get Out (Джордан Пил / Jordan Peele) [2017, США, ужасы, триллер, BDRip 720p] Dub (iTunes) + MVO (AlexFilm) + Sub Rus, Eng + Original Eng Galfimbul 64118488155.97 GB 0 0 1499425553

14:05

7-Июл-17

Зарубежные фильмы 2016-2019 (Новинки зарубежного кино) ·· Прочь / Get Out (Джордан Пил / Jordan Peele) [2017, США, ужасы, детектив, BDRip] Dub Galfimbul 15665438721.46 GB 0 0 1499414478

11:01

7-Июл-17

Зарубежные фильмы 2016-2019 (Новинки зарубежного кино) ·· Прочь / Get Out (Джордан Пил / Jordan Peele) [2017, США, триллер, детектив, WEB-DLRip] MVO (AlexFilm) + Original Eng Galfimbul 15695087281.46 GB 0 0 1494438252

20:44

10-Май-17

Зарубежные фильмы 2016-2019 (Новинки зарубежного кино) ·· Прочь / Get Out (Джордан Пил / Jordan Peele) [2017, США, триллер, детектив, WEB-DLRip] MVO (AlexFilm) Galfimbul 782866360747 MB 0 0 1494435836

20:03

10-Май-17

Зарубежные фильмы 2016-2019 (Новинки зарубежного кино) ·· Прочь / Get Out (Джордан Пил) [2017, ужасы, детектив, WEBRip 720p] Galfimbul 30236603882.82 GB 0 0 1493410158

23:09

28-Апр-17

Зарубежные фильмы 2016-2019 (Новинки зарубежного кино) ·· Прочь / Get Out (Джордан Пил) [2017, ужасы, детектив, WEBRip 1080p] Galfimbul 37797145953.52 GB 0 0 1492938951

12:15

23-Апр-17

Зарубежные фильмы 2016-2019 (Новинки зарубежного кино) ·· Прочь / Get Out (Джордан Пил) [2017, ужасы, детектив, WEBRip] Galfimbul 14676418561.37 GB 0 0 1492929708

09:41

23-Апр-17

Еще никто не оставлял запись к записи скачать торрент Прочь Get Out . Будь первым!

!Обратная связь