Скачать через торрент Вирус Viral Фильм бесплатно в хорошем качестве torrent

Скачивайте на UnionPeer.org фильмы через торрент без регистрации. Новинки кино в хорошем качестве через торрент. На UnionPeer.org можно скачать через торрент фильмы 2014 и 2015 годов. Самые новые фильмы.

Скачать торрент Вирус Viral бесплатно через .torrent фильм мультфильм сериал

Статистика раздачи
Размер:  6.78 GB   |    Зарегистрирован:  6 лет 7 месяцев   |    .torrent скачан:  127 раз   |   
Раздают:  1  
 

Скачать Вирус / Viral (Генри Джуст, Эриель Шульман) [2016, ужасы, фантастика, триллер, драма, BDRip 1080p] iTunes через torrent

 
 
Автор Сообщение

Galfimbul

avatar Galfimbul


Вирус /Viral

Год выпуска: 2016
Страна: США
Жанр: ужасы, фантастика, триллер, драма
Перевод: Дубляж - [iTunes]
Субтитры: английские (SDH)
Продолжительность: 01:25:35
Режиссер: Генри Джуст , Эриель Шульман
В ролях: София Блэк-Д’Элиа (Emma Drakeford), Анали Типтон (Stacey Drakeford), Трэвис Тоуп (Evan Klein), Майкл Келли (Michael Drakeford), Машин Ган Келли (CJ), Джон Котрэн (Mr. Toomey), Стоуни Вэстмолэнд (Bill), Линзи Грэй (Gracie Lemay), Джудиэнн Элдер (Mrs. Toomey), Филип Лэйбс (Gangly Kid), Брианна Хоуи (Tara Dannelly), Алекса Фишер (CDC Investigator)
Описание:
Сёстры Эмма и Стейси с отцом недавно переехали в новый город, и девушки теперь ходят в новую школу. По радио и телевидению всё время твердят про какой-то китайский вирус, у родителей, вроде бы, не ладятся отношения (мама застряла в другом городе и не возвращается), подруга Эммы серьёзно заболела, а сестёр больше волнуют интересные парни в новой школе. Когда отец уезжает встречать маму из аэропорта, в городе объявляют комендантский час, но это не останавливает девушек от посещения вечеринки.
Рейтинг:

MPAA: R - Лицам до 17 лет обязательно присутствие взрослого
Качество: BDRip 1080p
Формат: MKV
Видео: AVC, 1920x808 (2.40:1), 9453 kbps, 24 fps, 0,254 bpp
Аудио №1: русский / AC3 / 5.1 / 48 kHz / 384 kbps / |Дубляж|
Аудио №2: английский / DTS / 5.1 / 48 kHz / 1509 kbps / 24 bit
Сэмпл
General
Unique ID : 253912424613264340808000834465961971641 (0xBF05C11209587563ACDF6214CF5D8FB9)
Complete name : E:Viral.2016.BDRip.1080p.mkv
Format : Matroska
Format version : Version 4 / Version 2
File size : 6.78 GiB
Duration : 1 h 25 min
Overall bit rate : 11.3 Mb/s
Movie name : Вирус / Viral (2016) BDRip 1080p
Encoded date : UTC 2017-07-18 18:07:22
Writing application : mkvmerge v13.0.0 ('The Juggler') 64bit
Writing library : libebml v1.3.4 + libmatroska v1.4.5
Cover : Yes
Attachments : cover.jpg

Video
ID : 1
Format : AVC
Format/Info : Advanced Video Codec
Format profile : [email protected]
Format settings, CABAC : Yes
Format settings, ReFrames : 5 frames
Codec ID : V_MPEG4/ISO/AVC
Duration : 1 h 25 min
Bit rate : 9 453 kb/s
Width : 1 920 pixels
Height : 808 pixels
Display aspect ratio : 2.40:1
Frame rate mode : Constant
Frame rate : 24.000 FPS
Color space : YUV
Chroma subsampling : 4:2:0
Bit depth : 8 bits
Scan type : Progressive
Bits/(Pixel*Frame) : 0.254
Stream size : 5.65 GiB (83%)
Writing library : x264 core 150 r2833 df79067
Encoding settings : cabac=1 / ref=5 / deblock=1:0:0 / analyse=0x3:0x113 / me=umh / subme=8 / psy=1 / psy_rd=1.00:0.00 / mixed_ref=1 / me_range=16 / chroma_me=1 / trellis=2 / 8x8dct=1 / cqm=0 / deadzone=21,11 / fast_pskip=0 / chroma_qp_offset=-2 / threads=12 / lookahead_threads=2 / sliced_threads=0 / nr=0 / decimate=1 / interlaced=0 / bluray_compat=0 / constrained_intra=0 / bframes=3 / b_pyramid=2 / b_adapt=1 / b_bias=0 / direct=1 / weightb=1 / open_gop=0 / weightp=2 / keyint=250 / keyint_min=24 / scenecut=40 / intra_refresh=0 / rc_lookahead=50 / rc=2pass / mbtree=1 / bitrate=9453 / ratetol=1.0 / qcomp=0.60 / qpmin=0 / qpmax=69 / qpstep=4 / cplxblur=20.0 / qblur=0.5 / ip_ratio=1.40 / aq=1:1.00
Default : Yes
Forced : No

Audio #1
ID : 2
Format : AC-3
Format/Info : Audio Coding 3
Mode extension : CM (complete main)
Format settings, Endianness : Big
Codec ID : A_AC3
Duration : 1 h 25 min
Bit rate mode : Constant
Bit rate : 384 kb/s
Channel(s) : 6 channels
Channel positions : Front: L C R, Side: L R, LFE
Sampling rate : 48.0 kHz
Frame rate : 31.250 FPS (1536 spf)
Compression mode : Lossy
Stream size : 235 MiB (3%)
Title : DUB | iTunes
Language : Russian
Default : Yes
Forced : No

Audio #2
ID : 3
Format : DTS
Format/Info : Digital Theater Systems
Mode : 16
Format settings, Endianness : Big
Codec ID : A_DTS
Duration : 1 h 25 min
Bit rate mode : Constant
Bit rate : 1 509 kb/s
Channel(s) : 6 channels
Channel positions : Front: L C R, Side: L R, LFE
Sampling rate : 48.0 kHz
Frame rate : 93.750 FPS (512 spf)
Bit depth : 24 bits
Compression mode : Lossy
Stream size : 924 MiB (13%)
Title : Original
Language : English
Default : No
Forced : No

Text
ID : 4
Format : UTF-8
Codec ID : S_TEXT/UTF8
Codec ID/Info : UTF-8 Plain Text
Duration : 1 h 21 min
Bit rate : 52 b/s
Count of elements : 919
Stream size : 31.1 KiB (0%)
Title : SDH
Language : English
Default : No
Forced : No
Источник http://arutor.org

Внимание! AdBlock блокирует показ скриншотов, все вопросы к разработчикам )))
Трекер:  [ 18-Июл-2017 22:30 ]

  

Скачать .torrent

Размер .torrent файла 34 KB


Размер: 6.78 GB
Хэш (hash) релиза: accb496c2b6942b356452d20da94adebbb761139
Подписка на обновления:

Торренты, похожие на Вирус Viral скачать торрент

Форум Название Автор Размер S L Добавлен
Зарубежные фильмы 2016-2019 (Новинки зарубежного кино) ·· Вирус / Viral (Генри Джуст / Henry Joost, Эриель Шульман / Ariel Schulman) [2016, США, ужасы, фантастика, триллер, драма, HDRip-AVC] Dub Galfimbul 779337045743 MB 0 0 1500834622

21:30

23-Июл-17

Зарубежные фильмы 2016-2019 (Новинки зарубежного кино) ·· Вирус / Viral (Генри Джуст, Эриель Шульман / Henry Joost, Ariel Schulman) [2016, США, Ужасы, фантастика, триллер, драма, WEB-DLRip] Dub (iTunes) Galfimbul 15843164161.48 GB 0 0 1485233464

07:51

24-Янв-17

Зарубежные фильмы 2016-2019 (Новинки зарубежного кино) ·· Вирус / Viral (Генри Джуст, Эриель Шульман / Henry Joost, Ariel Schulman) [2016, США, Ужасы, фантастика, триллер, драма, WEB-DLRip] Dub (iTunes) Galfimbul 779788288744 MB 0 0 1485233461

07:51

24-Янв-17

Зарубежные фильмы 2016-2019 (Новинки зарубежного кино) ·· Вирус / Viral (Генри Джуст, Эриель Шульман) [2016, ужасы, фантастика, триллер, драма, WEB-DL 720p] Line Galfimbul 26342627712.45 GB 0 0 1481342996

07:09

10-Дек-16

Зарубежные фильмы 2016-2019 (Новинки зарубежного кино) ·· Вирус / Viral (Генри Джуст, Эриель Шульман) [2016, ужасы, фантастика, триллер, драма, WEB-DLRip] Чистый звук Galfimbul 14584012801.36 GB 0 0 1481289649

16:20

9-Дек-16

Зарубежные фильмы 2016-2019 (Новинки зарубежного кино) ·· Вирус / Viral (Генри Джуст, Эриель Шульман) [2016, ужасы, фантастика, триллер, драма, WEB-DLRip] Galfimbul 14580387841.36 GB 0 0 1470266660

02:24

4-Авг-16

Зарубежные фильмы 2016-2019 (Новинки зарубежного кино) ·%· З/Л/О: Новый вирус / V/H/S: Viral (2014) BDRip 720p | Лицензия Galfimbul 49286741374.59 GB 0 0 1548237009

12:50

23-Янв-19

Зарубежные фильмы до 2016 ·· З/Л/О: Новый вирус / V/H/S: Viral (Джастин Бенсон / Justin Benson, Грегг Бишоп / Gregg Bishop, Тодд Линкольн / Todd Lincoln) [2014, США, Ужасы, триллер, HDRip] Dub (iTunes) Galfimbul 788914176752 MB 0 0 1471807521

22:25

21-Авг-16

Зарубежные фильмы до 2016 ·· З/Л/О: Новый вирус / V/H/S: Viral (Джастин Бенсон / Justin Benson, Грегг Бишоп / Gregg Bishop) [2014, США, Ужасы, триллер, HDRip ] Dub Galfimbul 15703797761.46 GB 0 0 1421594521

18:22

18-Янв-15

Зарубежные фильмы до 2016 ·· З/Л/О: Новый вирус / V/H/S: Viral (Джастин Бенсон / Justin Benson, Грегг Бишоп / Gregg Bishop) [2014, США, Ужасы, триллер, BDRip 720p] iTunes Galfimbul 49286219564.59 GB 0 0 1418064304

21:45

8-Дек-14

Зарубежные фильмы до 2016 ·· З/Л/О: Новый вирус / V/H/S: Viral (Джастин Бенсон / Justin Benson, Грегг Бишоп / Gregg Bishop) [2014, США, Ужасы, триллер, WEB-DLRip] Dub Galfimbul 14673612801.37 GB 0 0 1418024270

10:37

8-Дек-14

Зарубежные фильмы до 2016 ·· З/Л/О: Новый вирус / V/H/S: Viral (Джастин Бенсон / Justin Benson, Грегг Бишоп / Gregg Bishop, Тодд Линкольн / Todd Lincoln) [2014, США, Ужасы, триллер, WEB-DL 720p] [Чистый звук] Galfimbul 28515741552.66 GB 0 0 1416899355

10:09

25-Ноя-14

Зарубежные фильмы до 2016 ·· З/Л/О: Новый вирус / V/H/S: Viral (Джастин Бенсон / Justin Benson, Грегг Бишоп / Gregg Bishop, Тодд Линкольн / Todd Lincoln) [2014, США, Ужасы, триллер, WEB-DLRip] [Чистый звук] Galfimbul 15738368001.47 GB 0 0 1416897539

09:38

25-Ноя-14

Зарубежные фильмы до 2016 ·· З/Л/О: Новый вирус / V/H/S: Viral (Джастин Бенсон / Justin Benson, Грегг Бишоп / Gregg Bishop, Тодд Линкольн / Todd Lincoln) [2014, США, Ужасы, триллер, WEB-DLRip] VO (datynet) Galfimbul 783151104747 MB 0 0 1414472711

08:05

28-Окт-14

Зарубежные фильмы до 2016 ·· З/Л/О: Новый вирус / V/H/S: Viral (Джастин Бенсон, Грегг Бишоп, Тодд Линкольн) [2014, ужасы, триллер, WEB-DL 720p] Galfimbul 28515731292.66 GB 0 0 1414438686

22:38

27-Окт-14

Зарубежные фильмы до 2016 ·· З/Л/О: Новый вирус / V/H/S: Viral (Джастин Бенсон, Грегг Бишоп, Тодд Линкольн) [2014, ужасы, триллер, WEB-DLRip] Galfimbul 14772080641.38 GB 0 0 1414422285

18:04

27-Окт-14

Еще никто не оставлял запись к записи скачать торрент Вирус Viral . Будь первым!

!Обратная связь