Скачать через торрент Живое Life Фильм бесплатно в хорошем качестве torrent

Скачивайте на UnionPeer.org фильмы через торрент без регистрации. Новинки кино в хорошем качестве через торрент. На UnionPeer.org можно скачать через торрент фильмы 2014 и 2015 годов. Самые новые фильмы.

Скачать торрент Живое Life бесплатно через .torrent фильм мультфильм сериал

Статистика раздачи
Размер:  1.46 GB   |    Зарегистрирован:  6 лет 7 месяцев   |    .torrent скачан:  151 раз   |   
Раздают:  1  
 

Скачать Живое / Life (Даниэль Эспиноса / Daniel Espinosa) [2017, США, ужасы, фантастика, триллер, HDRip] AVO (Дохалов) через torrent

 
 
Автор Сообщение

Galfimbul

avatar Galfimbul


Живое / Life
Страна: США
Жанр: ужасы, фантастика, триллер
Год выпуска: 2017
Продолжительность: 01:43:58

Перевод: Авторский (одноголосый закадровый) Вартан Дохалов
Субтитры: нет

Режиссер: Даниэль Эспиноса / Daniel Espinosa

В ролях: Хироюки Санада, Райан Рейнольдс, Ребекка Фергюсон, Джейк Джилленхол, Ольга Дыховичная, Эрион Бакаре, Хесус Дель Орден, Аллен МакЛин, Лейла Грэйс Боствик-Ридделл, Мари Гвелесиани

Описание: Группа исследователей с международного космического корабля обнаруживает жизнь на Марсе. Они еще не подозревают, какие события повлечет за собой их открытие.



Качество видео: HDRip
Формат видео: AVI
Видео кодек: XviD
Аудио кодек: AC3

Видео: 720x304 (2.37:1), 23.976 fps, XviD build 73 ~1548 kbps avg, 0.29 bit/pixel
Аудио: 48 kHz, AC3 Dolby Digital, 3/2 (L,C,R,l,r) + LFE ch, ~448 kbps
за видеоряд спасибо k.e.n.
Полное имя : Живое.avi
Формат : AVI
Формат/Информация : Audio Video Interleave
Размер файла : 1,46 Гбайт
Продолжительность : 1 ч. 43 м.
Общий поток : 2006 Кбит/сек
Программа кодирования : VirtualDubMod 1.5.10.3 | www.virtualdub-fr.org || (build 2550/release)
Библиотека кодирования : VirtualDubMod build 2550/release

Видео
Идентификатор : 0
Формат : MPEG-4 Visual
Профиль формата : Advanced Simple@L5
Параметр BVOP формата : 1
Параметр QPel формата : Нет
Параметр GMC формата : Без точки перехода
Параметр матрицы формата : Выборочная
Идентификатор кодека : XVID
Идентификатор кодека/Подсказка : XviD
Продолжительность : 1 ч. 43 м.
Битрейт : 1549 Кбит/сек
Ширина : 720 пикселей
Высота : 304 пикселя
Соотношение сторон : 2,35:1
Частота кадров : 23,976 кадра/сек
Цветовое пространство : YUV
Субдискретизация насыщенности : 4:2:0
Битовая глубина : 8 бит
Тип развёртки : Прогрессивная
Метод сжатия : С потерями
Бит/(Пиксели*Кадры) : 0.295
Размер потока : 1,12 Гбайт (77%)
Библиотека кодирования : XviD 73

Аудио
Идентификатор : 1
Формат : AC-3
Формат/Информация : Audio Coding 3
Расширение режима : CM (complete main)
Параметр Endianness формата : Big
Идентификатор кодека : 2000
Продолжительность : 1 ч. 43 м.
Вид битрейта : Постоянный
Битрейт : 448 Кбит/сек
Каналы : 6 каналов
Расположение каналов : Front: L C R, Side: L R, LFE
Частота : 48,0 КГц
Метод сжатия : С потерями
Размер потока : 333 Мбайт (22%)
Выравнивание : Разделение по промежуткам
Продолжительность промежутка : 42 мс. (1,00 видеокадр)
Время предзагрузки промежутка : 500 мс.


Внимание! AdBlock блокирует показ скриншотов, все вопросы к разработчикам )))
Трекер:  [ 19-Июл-2017 11:30 ]

  

Скачать .torrent

Размер .torrent файла 15 KB


Размер: 1.46 GB
Хэш (hash) релиза: 9cd2dbdb2bf4a24e9984c94a0e21cdbdfef31c2d
Подписка на обновления:

Торренты, похожие на Живое Life скачать торрент

Форум Название Автор Размер S L Добавлен
Зарубежные фильмы 2016-2019 (Новинки зарубежного кино) ·· Живое / Life (2017) BDRemux 1080p | D, A Galfimbul 3044336810628.35 GB 0 0 1580538608

09:30

1-Фев-20

Зарубежные фильмы 2016-2019 (Новинки зарубежного кино) ·%· Живое / Life (2017) BDRip-HEVC 1080p от HEVC-CLUB | D Galfimbul 45649530664.25 GB 0 0 1573555812

13:50

12-Ноя-19

Зарубежные фильмы 2016-2019 (Новинки зарубежного кино) ·%· Живое / Life (2017) BDRip-HEVC 1080p от HEVC-CLUB | Лицензия Galfimbul 56201982495.23 GB 0 0 1571503830

19:50

19-Окт-19

Зарубежные фильмы 2016-2019 (Новинки зарубежного кино) ·· Живое / Life (Даниэль Эспиноса) [2017 г., ужасы, фантастика, триллер, BDRemux 1080p] D, A | Лицензия Galfimbul 3044309527528.35 GB 0 0 1518847837

09:10

17-Фев-18

Зарубежные фильмы 2016-2019 (Новинки зарубежного кино) ·· Живое / Life (Даниэль Эспиноса) [2017 г., ужасы, фантастика, триллер, BDRip 1080p] D, A | Лицензия Galfimbul 1666509981715.52 GB 0 0 1518846618

08:50

17-Фев-18

Зарубежные фильмы до 2016 ·· Живое / Life (Даниэль Эспиноса / Daniel Espinosa) [2017, США, ужасы, фантастика, триллер, BD>DVD9 (Custom)] DUB + AVO (В. Дохалов) + Sub Rus / Eng + Original Eng Galfimbul 77589360647.23 GB 0 0 1508997968

09:06

26-Окт-17

Зарубежные фильмы до 2016 ·· Живое / Life (Стивен Гейган / Stephen Gaghan) [2017, США, ужасы, фантастика, триллер, BD>DVD5 (Custom)] DUB + AVO (В. Дохалов) + Sub Rus / Eng + Original Eng Galfimbul 46718648324.35 GB 0 0 1508222169

09:36

17-Окт-17

Зарубежные фильмы до 2016 ·· Живое / Life (Даниэль Эспиноса / Daniel Espinosa) [2017, США, Ужасы, фантастика, триллер, DVD5 (сжатый)] исх. R2, Dub + Sub Rus + Original Eng Galfimbul 46919475204.37 GB 0 0 1502006780

11:06

6-Авг-17

Зарубежные фильмы 2016-2019 (Новинки зарубежного кино) ·· Живое / Life (Даниэль Эспиноса / Daniel Espinosa) [2017, США, ужасы, фантастика, триллер, BDRip-AVC] Dub (BD EUR)+ Original + Sub (rus, eng) Galfimbul 23577939402.2 GB 0 0 1501794071

00:01

4-Авг-17

Зарубежные фильмы 2016-2019 (Новинки зарубежного кино) ·· Живое / Life (Даниэль Эспиноса / Daniel Espinosa) [2017, США, ужасы, фантастика, триллер, Blu-Ray EUR 1080p] Лицензия Galfimbul 3359016442631.28 GB 0 0 1501706414

23:40

2-Авг-17

Зарубежные фильмы до 2016 ·· Живое / Life (Даниэль Эспиноса / Daniel Espinosa) [2017, США, Ужасы, фантастика, триллер, DVD9] Dub + Sub Rus + Original Eng Galfimbul 59887778785.58 GB 0 0 1501265174

21:06

28-Июл-17

Зарубежные фильмы 2016-2019 (Новинки зарубежного кино) ·· Живое / Life (Даниэль Эспиноса) [2017 г., ужасы, фантастика, триллер, BDRip] Galfimbul 22407296242.09 GB 0 0 1499149214

09:20

4-Июл-17

Зарубежные фильмы 2016-2019 (Новинки зарубежного кино) ·· Живое / Life (Даниэль Эспиноса / Daniel Espinosa) [2017, США, ужасы, фантастика, триллер, BDRip] Dub + Sub Rus, Eng + Original Eng Galfimbul 23384421782.18 GB 0 0 1498813271

12:01

30-Июн-17

Зарубежные фильмы 2016-2019 (Новинки зарубежного кино) ·· Живое / Life (Даниэль Эспиноса / Daniel Espinosa) [2017, США, ужасы, фантастика, триллер, BDRip-AVC] Dub (iTunes) Galfimbul 781186870745 MB 0 0 1497625274

18:01

16-Июн-17

Зарубежные фильмы 2016-2019 (Новинки зарубежного кино) ·· Живое / Life (Даниэль Эспиноса / Daniel Espinosa) [2017, США, Ужасы, фантастика, триллер, BDRip-AVC] Dub + Sub Rus, Eng + Original Eng Galfimbul 27779117722.59 GB 0 0 1497493826

05:30

15-Июн-17

Зарубежные фильмы до 2016 ·· Живое / Life (Даниэль Эспиноса / Daniel Espinosa) [2017, США, ужасы, фантастика, триллер, BDRip 720p] Dub (iTunes) + Sub Rus, Ukr, Eng + Original Eng Galfimbul 64269439635.99 GB 0 0 1497443773

15:36

14-Июн-17

Зарубежные фильмы 2016-2019 (Новинки зарубежного кино) ·· Живое / Life (Даниэль Эспиноса) [2017, ужасы, фантастика, триллер, BDRip 1080p] 60 fps Galfimbul 86295898628.04 GB 0 0 1497174631

12:50

11-Июн-17

Зарубежные фильмы 2016-2019 (Новинки зарубежного кино) ·· Живое / Life (Даниэль Эспиноса) [2017 г., ужасы, фантастика, триллер, BDRip 1080p] iTunes Galfimbul 1175618587410.95 GB 0 0 1496930408

17:00

8-Июн-17

Зарубежные фильмы 2016-2019 (Новинки зарубежного кино) ·· Живое / Life (Даниэль Эспиноса) [2017 г., ужасы, фантастика, триллер, HDRip] iTunes Galfimbul 781862059746 MB 0 0 1496928610

16:30

8-Июн-17

Еще никто не оставлял запись к записи скачать торрент Живое Life . Будь первым!

!Обратная связь