Скачать через торрент Одарённая Gifted Фильм бесплатно в хорошем качестве torrent

Скачивайте на UnionPeer.org фильмы через торрент без регистрации. Новинки кино в хорошем качестве через торрент. На UnionPeer.org можно скачать через торрент фильмы 2014 и 2015 годов. Самые новые фильмы.

Скачать торрент Одарённая Gifted бесплатно через .torrent фильм мультфильм сериал

Статистика раздачи
Размер:  744 MB   |    Зарегистрирован:  6 лет 6 месяцев   |    .torrent скачан:  83 раза   |   
Раздают:  1  
 

Скачать Одарённая / Gifted (Марк Уэбб / Marc Webb) [2017, США, драма, BDRip] Dub через torrent

 
 
Автор Сообщение

Galfimbul

avatar Galfimbul


Одарённая / Gifted

Страна: США
Жанр: драма
Год выпуска: 2017
Продолжительность: 01:41:10

Перевод: Профессиональный (дублированный) | iTunes
Субтитры: нет
Оригинальная аудиодорожка: нетРежиссер: Марк Уэбб / Marc WebbВ ролях: Крис Эванс, МакКенна Грейс, Линдси Дункан, Дженни Слейт, Октавия Спенсер, Майкл Кендалл Каплан, Джон М. Джексон, Гленн Пламмер, Джон Финн, Элизабет МарвелОписание: Фрэнк Адлер живет в прибрежном городке во Флориде и воспитывает в одиночку свою необычайно одаренную племянницу Мэри. Но планы парня о спокойной школьной жизни для девочки рушатся, когда о математических способностях ребенка узнает грозная мать Фрэнка Эвелин. У бабушки свои представления о будущем внучки, и ради этого она готова даже разлучить Мэри с Фрэнком.Качество видео: BDRip | GIFTED_REMUX_HDCLUB
Формат видео: AVI

Видео: 688x288 (2.39:1), 23.976 fps, XviD build 73 ~890 kbps avg, 0.19 bit/pixel
Аудио: 48 kHz, MPEG Layer 3, 2 ch, ~128.00 kbps avgСкачать сэмпл
Format                      : AVI
Format/Info                 : Audio Video Interleave
File size                   : 744 MiB
Duration                    : 1 h 41 min
Overall bit rate            : 1 028 kb/s
Writing application         : VirtualDubMod 1.5.10.3 | www.virtualdub-fr.org || (build 2550/release)
Writing library             : VirtualDubMod build 2550/release

Video
ID                          : 0
Format                      : MPEG-4 Visual
Format profile              : Advanced Simple@L5
Format settings, BVOP       : 1
Format settings, QPel       : No
Format settings, GMC        : No warppoints
Format settings, Matrix     : Custom
Codec ID                    : XVID
Codec ID/Hint               : XviD
Duration                    : 1 h 41 min
Bit rate                    : 891 kb/s
Width                       : 688 pixels
Height                      : 288 pixels
Display aspect ratio        : 2.40:1
Frame rate                  : 23.976 (24000/1001) FPS
Color space                 : YUV
Chroma subsampling          : 4:2:0
Bit depth                   : 8 bits
Scan type                   : Progressive
Compression mode            : Lossy
Bits/(Pixel*Frame)          : 0.187
Stream size                 : 645 MiB (87%)
Writing library             : XviD 73

Audio
ID                          : 1
Format                      : MPEG Audio
Format version              : Version 1
Format profile              : Layer 3
Codec ID                    : 55
Codec ID/Hint               : MP3
Duration                    : 1 h 41 min
Bit rate mode               : Constant
Bit rate                    : 128 kb/s
Channel(s)                  : 2 channels
Sampling rate               : 48.0 kHz
Compression mode            : Lossy
Stream size                 : 92.6 MiB (12%)
Alignment                   : Aligned on interleaves
Interleave, duration        : 42  ms (1.00 video frame)
Interleave, preload duratio : 504  ms
Writing library             : LAME3.99r
Encoding settings           : -m s -V 4 -q 2 -lowpass 17 -b 128


Внимание! AdBlock блокирует показ скриншотов, все вопросы к разработчикам )))
Трекер:  [ 27-Июл-2017 19:30 ]

  

Скачать .torrent

Размер .torrent файла 15 KB


Размер: 744 MB
Хэш (hash) релиза: 59faf24ea830b90313dc76d8a22a387b661fe580
Подписка на обновления:

Торренты, похожие на Одарённая Gifted скачать торрент

Форум Название Автор Размер S L Добавлен
Зарубежные фильмы до 2016 ·%· Одарённая / Gifted (Марк Уэбб / Marc Webb) [2017, США, Драма, DVD9] R5 Dub + Sub Rus + Original Eng Galfimbul 72141025286.72 GB 0 0 1530732635

22:30

4-Июл-18

Зарубежные фильмы до 2016 ·· Одарённая / Gifted (Марк Уэбб / Marc Webb) [2017, США, драма, Blu-ray disc 1080p] [EUR] Dub + Sub Rus, Eng + Original Eng Galfimbul 4212333113139.23 GB 1 1 1510049366

13:09

7-Ноя-17

Зарубежные фильмы 2016-2019 (Новинки зарубежного кино) ·· Одарённая / Gifted (Марк Уэбб / Marc Webb) [2017, США, драма, BDRip] Dub (EUR) + Original Eng + subs (Rus, Rus F, Eng, Eng SDH, Eng SDH Colored) Galfimbul 23443072142.18 GB 0 0 1509888620

16:30

5-Ноя-17

Трейлеры и дополнительные материалы ·· Одарённая / Gifted (Марк Уэбб) [2017, Драма, BDRip 720p] дополнительные материалы Galfimbul 1000194142954 MB 0 0 1509811564

19:06

4-Ноя-17

Зарубежные фильмы 2016-2019 (Новинки зарубежного кино) ·· Одарённая / Gifted (Марк Уэбб) [2017 г., драма, BDRip] DUB | Лицензия Galfimbul 15684942301.46 GB 0 0 1509018573

14:49

26-Окт-17

Зарубежные фильмы 2016-2019 (Новинки зарубежного кино) ·· Одарённая / Gifted (Марк Уэбб) [2017, драма, BDRip 720p] Лицензия Galfimbul 67818439776.32 GB 0 0 1508994026

08:00

26-Окт-17

Зарубежные фильмы 2016-2019 (Новинки зарубежного кино) ·· Одарённая / Gifted (Марк Уэбб) [2017, драма, BDRip 1080p] Лицензия Galfimbul 1221230098411.37 GB 0 0 1508994011

08:00

26-Окт-17

Зарубежные фильмы 2016-2019 (Новинки зарубежного кино) ·· Одарённая / Gifted (Марк Уэбб) [2017, драма, BDRip 1080p] DUB [iTunes] Galfimbul 81331245637.57 GB 0 0 1507715763

12:56

11-Окт-17

Зарубежные фильмы 2016-2019 (Новинки зарубежного кино) ·· Одарённая / Gifted (Марк Уэбб / Marc Webb) [2017, США, драма, BDRip-AVC] Dub Galfimbul 15598662701.45 GB 0 0 1501173018

19:30

27-Июл-17

Зарубежные фильмы 2016-2019 (Новинки зарубежного кино) ·· Одарённая / Gifted (Марк Уэбб / Marc Webb) [2017, США, драма, BDRip] + Sub Rus + Original Eng Galfimbul 15643167571.46 GB 0 0 1500310875

20:01

17-Июл-17

Зарубежные фильмы 2016-2019 (Новинки зарубежного кино) ·· Одарённая / Gifted (Марк Уэбб) [2017 г., драма, WEBRip 1080р] Line Galfimbul 39172320663.65 GB 0 0 1497410412

06:20

14-Июн-17

Зарубежные фильмы 2016-2019 (Новинки зарубежного кино) ·· Одарённая / Gifted (Марк Уэбб) [2017 г., драма, WEBRip] Line Galfimbul 14672650241.37 GB 0 0 1497410407

06:20

14-Июн-17

Зарубежные фильмы 2016-2019 (Новинки зарубежного кино) ·· Одарённая / Gifted (Марк Уэбб) [2017 г., драма, WEBRip 1080p] DUB | Звук с TS Galfimbul 35145113593.27 GB 0 0 1496478224

11:23

3-Июн-17

Зарубежные фильмы 2016-2019 (Новинки зарубежного кино) ·· Одарённая / Gifted (Марк Уэбб) [2017 г., драма, WEBRip 720p] DUB | Звук с TS Galfimbul 30383455382.83 GB 0 0 1496478222

11:23

3-Июн-17

Зарубежные фильмы 2016-2019 (Новинки зарубежного кино) ·· Одарённая / Gifted (Марк Уэбб) [2017 г., драма, WEBRip] DUB | Звук с TS Galfimbul 14675619841.37 GB 0 0 1496478220

11:23

3-Июн-17

Зарубежные фильмы 2016-2019 (Новинки зарубежного кино) ·· Одарённая / Gifted (Марк Уэбб) [2017, драма, WEBRip 1080p] Galfimbul 38946303353.63 GB 0 0 1494081781

17:43

6-Май-17

Зарубежные сериалы ·· Одаренные / The Gifted / Сезон: 1 / Серии: 1-13 из 13 (Брайан Сингер) [2017, США, Фантастика, боевик, WEB-DLRip] MVO (Jaskier) + Original Galfimbul 75032186886.99 GB 0 0 1519028190

11:16

19-Фев-18

Зарубежные сериалы ·· Одаренные / The Gifted / Сезон: 1 / Серии: 1-10 из 13 (Крэйг Сибельс, Джеримайя С. Чечик, Карен Гавиола) [2017, США, фантастика, фэнтези, боевик, WEBRip] MVO (Good People) + Original + Subs (Eng) Galfimbul 64539835836.01 GB 0 0 1514920976

22:22

2-Янв-18

Зарубежные сериалы ·· Одаренные / The Gifted / Сезон: 1 / Серии: 1 из 10 (Брайан Сингер) [2017, США, Фантастика, боевик, WEB-DL 720p] MVO (Jaskier) + Original + Sub Eng Galfimbul 11976869211.12 GB 0 0 1512129307

14:55

1-Дек-17

Еще никто не оставлял запись к записи скачать торрент Одарённая Gifted . Будь первым!

!Обратная связь