Скачать через торрент Развод по-французски Papa ou maman 2 Фильм бесплатно в хорошем качестве torrent

Скачивайте на UnionPeer.org фильмы через торрент без регистрации. Новинки кино в хорошем качестве через торрент. На UnionPeer.org можно скачать через торрент фильмы 2014 и 2015 годов. Самые новые фильмы.

Скачать торрент Развод по-французски Papa ou maman 2 бесплатно через .torrent фильм мультфильм сериал

Статистика раздачи
Размер:  1.46 GB   |    Зарегистрирован:  6 лет 5 месяцев   |    .torrent скачан:  111 раз   |   
Раздают:  1  
 

Скачать Развод по-французски / Papa ou maman 2 (Мартин Бурбулон / Martin Bourboulon) [2016, Франция, Бельгия, комедия, BDRip] Dub (iTunes) через torrent

 
 
Автор Сообщение

Galfimbul

avatar Galfimbul


Развод по-французски / Papa ou maman 2

Страна: Франция, Бельгия
Жанр: комедия
Год выпуска: 2016
Продолжительность: 01:26:21

Перевод: Профессиональный (дублированный) | iTunes
Субтитры: нет
Оригинальная аудиодорожка: нетРежиссер:
Мартин Бурбулон / Martin BourboulonВ ролях:
Лоран Лафитт, Марина Фоис, Александр Десрусу, Анна Лемаршан, Акилле Потье, Микаэль Абитбуль, Жюдит Эль Зейн, Сара ЖиродоОписание:
История о разводящихся супругах Винсенте и Флоранс, которые не брезговали никакими методами, лишь переложить друг на друга опеку над тремя детьми. Их война, казалось бы, давно завершилась, но спустя два года оба непутевых родителя встречают новую любовь и опять вступают в борьбу отцов и матерей. Дети, оставаясь главными жертвами, вмешиваются в эту баталию, чтобы навсегда разорвать порочный круг.Качество видео: BDRip | PAPA_OU_MAMAN_BLUEBIRD
Формат видео: AVI

Видео: 720x304 (2.37:1), 23.976 fps, XviD build 73 ~2021 kbps avg, 0.39 bit/pixel
Аудио: 48 kHz, AC3 Dolby Digital, 3/2 (L,C,R,l,r) + LFE ch, ~384 kbpsСкачать сэмпл
Format                      : AVI
Format/Info                 : Audio Video Interleave
File size                   : 1.46 GiB
Duration                    : 1 h 26 min
Overall bit rate            : 2 415 kb/s
Writing application         : VirtualDubMod 1.5.10.3 | www.virtualdub-fr.org || (build 2550/release)
Writing library             : VirtualDubMod build 2550/release

Video
ID                          : 0
Format                      : MPEG-4 Visual
Format profile              : Advanced Simple@L5
Format settings, BVOP       : 1
Format settings, QPel       : No
Format settings, GMC        : No warppoints
Format settings, Matrix     : Custom
Codec ID                    : XVID
Codec ID/Hint               : XviD
Duration                    : 1 h 26 min
Bit rate                    : 2 021 kb/s
Width                       : 720 pixels
Height                      : 304 pixels
Display aspect ratio        : 2.35:1
Frame rate                  : 23.976 (24000/1001) FPS
Color space                 : YUV
Chroma subsampling          : 4:2:0
Bit depth                   : 8 bits
Scan type                   : Progressive
Compression mode            : Lossy
Bits/(Pixel*Frame)          : 0.385
Stream size                 : 1.22 GiB (84%)
Writing library             : XviD 73

Audio
ID                          : 1
Format                      : AC-3
Format/Info                 : Audio Coding 3
Format settings, Endianness : Big
Codec ID                    : 2000
Duration                    : 1 h 26 min
Bit rate mode               : Constant
Bit rate                    : 384 kb/s
Channel(s)                  : 6 channels
Channel positions           : Front: L C R, Side: L R, LFE
Sampling rate               : 48.0 kHz
Frame rate                  : 31.250 FPS (1536 spf)
Bit depth                   : 16 bits
Compression mode            : Lossy
Stream size                 : 237 MiB (16%)
Alignment                   : Split accross interleaves
Interleave, duration        : 42  ms (1.00 video frame)
Interleave, preload duratio : 500  ms
Service kind                : Complete Main


Внимание! AdBlock блокирует показ скриншотов, все вопросы к разработчикам )))
Трекер:  [ 17-Сен-2017 20:01 ]

  

Скачать .torrent

Размер .torrent файла 15 KB


Размер: 1.46 GB
Хэш (hash) релиза: 3642dd0b730124e68251d69e54c964d41e0fbb7b
Подписка на обновления:

Торренты, похожие на Развод по-французски Papa ou maman 2 скачать торрент

Форум Название Автор Размер S L Добавлен
Зарубежные фильмы 2016-2019 (Новинки зарубежного кино) ·· Развод по-французски / Papa ou maman 2 (Мартин Бурбулон / Martin Bourboulon) [2016, Франция, Бельгия, комедия, BDRip-AVC] Dub Galfimbul 15355584031.43 GB 0 0 1506627026

22:30

28-Сен-17

Зарубежные фильмы 2016-2019 (Новинки зарубежного кино) ·· Развод по-французски / Papa ou maman 2 (Мартин Бурбулон / Martin Bourboulon) [2016, Франция, Бельгия, комедия, BDRip 720p] iTunes Galfimbul 38992463963.63 GB 0 0 1505835643

18:40

19-Сен-17

Зарубежные фильмы 2016-2019 (Новинки зарубежного кино) ·· Развод по-французски / Papa ou maman 2 (Мартин Бурбулон / Martin Bourboulon) [2016, Франция, Бельгия, комедия, BDRip] Dub (iTunes) Galfimbul 778506240742 MB 0 0 1505682082

00:01

18-Сен-17

Зарубежные фильмы 2016-2019 (Новинки зарубежного кино) ·· Развод по-французски / Papa ou maman 2 (Мартин Бурбулон) [2016, комедия, HDRip] Galfimbul 14677667841.37 GB 0 0 1492108956

21:42

13-Апр-17

Еще никто не оставлял запись к записи скачать торрент Развод по-французски Papa ou maman 2 . Будь первым!

!Обратная связь