Скачать через торрент Развод по-французски Papa ou maman 2 Фильм бесплатно в хорошем качестве torrent

Скачивайте на UnionPeer.org фильмы через торрент без регистрации. Новинки кино в хорошем качестве через торрент. На UnionPeer.org можно скачать через торрент фильмы 2014 и 2015 годов. Самые новые фильмы.

Скачать торрент Развод по-французски Papa ou maman 2 бесплатно через .torrent фильм мультфильм сериал

Статистика раздачи
Размер:  3.63 GB   |    Зарегистрирован:  6 лет 5 месяцев   |    .torrent скачан:  101 раз   |   
Раздают:  1  
 

Скачать Развод по-французски / Papa ou maman 2 (Мартин Бурбулон / Martin Bourboulon) [2016, Франция, Бельгия, комедия, BDRip 720p] iTunes через torrent

 
 
Автор Сообщение

Galfimbul

avatar Galfimbul


Название: Развод по-французски
Оригинальное название: Papa ou maman 2
Год выхода: 2016
Жанр: Комедия
Режиссер: Мартин Бурбулон
В ролях: Лоран Лафитт, Марина Фоис, Александр Десрусу, Анна Лемаршан, Акилле Потье, Микаэль Абитбуль, Жюдит Эль Зейн, Сара Жиродо

О фильме:
История о разводящихся супругах Винсенте и Флоранс, которые не брезговали никакими методами, лишь переложить друг на друга опеку над тремя детьми. Их война, казалось бы, давно завершилась, но спустя два года оба непутевых родителя встречают новую любовь и опять вступают в борьбу отцов и матерей. Дети, оставаясь главными жертвами, вмешиваются в эту баталию, чтобы навсегда разорвать порочный круг.

</a>

Страна: Франция, Бельгия
Студия: Apidev 5, Canal+ [fr]
Продолжительность: 01:26:21
Перевод: Дублированный | iTunes

Файл
Формат: MKV
Качество: BDRip 720p
Видео: MPEG-4 AVC, 5000 kb/s, 1280x534
Аудио: Russian: AC3, 384 kb/s (6 ch) / English: AC3, 640 kb/s (6 ch)
Субтитры: нет
x264 [info]: frame I:1213 Avg QP:12.37 size:126307
x264 [info]: frame P:31244 Avg QP:15.01 size: 47806
x264 [info]: frame B:91773 Avg QP:16.41 size: 17301
x264 [info]: consecutive B-frames: 4.3% 5.2% 13.1% 22.1% 17.6% 27.3% 5.0% 2.2% 1.1% 0.8% 1.5%
=======================================================
Общее
Полное имя :Papa.Ou.Maman.2.D.BDRip.720p.mkv
Формат : Matroska
Версия формата : Version 2
Размер файла : 3,63 Гбайт
Продолжительность : 1 ч. 26 м.
Общий поток : 6020 Кбит/сек
Дата кодирования : UTC 2017-09-17 18:25:26
Программа кодирования : mkvmerge v7.8.0 ('River Man') 32bit built on Apr 3 2015 12:11:22
Библиотека кодирования : libebml v1.3.1 + libmatroska v1.4.2

Видео
Идентификатор : 1
Формат : AVC
Формат/Информация : Advanced Video Codec
Профиль формата : [email protected]
Параметр CABAC формата : Да
Параметр ReFrames формата : 12 кадров
Идентификатор кодека : V_MPEG4/ISO/AVC
Продолжительность : 1 ч. 26 м.
Битрейт : 5000 Кбит/сек
Ширина : 1280 пикселей
Высота : 534 пикселя
Соотношение сторон : 2,40:1
Режим частоты кадров : Постоянный
Частота кадров : 23,976 (24000/1001) кадра/сек
Цветовое пространство : YUV
Субдискретизация насыщенности : 4:2:0
Битовая глубина : 8 бит
Тип развёртки : Прогрессивная
Бит/(Пиксели*Кадры) : 0.305
Размер потока : 2,94 Гбайт (81%)
Библиотека кодирования : x264 core 152 r2851 ba24899
Настройки программы : cabac=1 / ref=12 / deblock=1:-3:-3 / analyse=0x3:0x133 / me=umh / subme=10 / psy=1 / psy_rd=1.00:0.00 / mixed_ref=1 / me_range=32 / chroma_me=0 / trellis=2 / 8x8dct=1 / cqm=0 / deadzone=21,11 / fast_pskip=0 / chroma_qp_offset=-2 / threads=12 / lookahead_threads=3 / sliced_threads=0 / nr=0 / decimate=0 / interlaced=0 / bluray_compat=0 / constrained_intra=0 / bframes=10 / b_pyramid=2 / b_adapt=2 / b_bias=0 / direct=3 / weightb=1 / open_gop=1 / weightp=2 / keyint=240 / keyint_min=23 / scenecut=40 / intra_refresh=0 / rc_lookahead=40 / rc=2pass / mbtree=0 / bitrate=5000 / ratetol=1.0 / qcomp=0.70 / qpmin=0 / qpmax=69 / qpstep=4 / cplxblur=20.0 / qblur=0.5 / vbv_maxrate=50000 / vbv_bufsize=62500 / nal_hrd=none / filler=0 / ip_ratio=1.40 / pb_ratio=1.30 / aq=3:0.90
Язык : French
Default : Да
Forced : Нет

Аудио #1
Идентификатор : 2
Формат : AC-3
Формат/Информация : Audio Coding 3
Параметр Endianness формата : Big
Идентификатор кодека : A_AC3
Продолжительность : 1 ч. 26 м.
Вид битрейта : Постоянный
Битрейт : 384 Кбит/сек
Каналы : 6 каналов
Расположение каналов : Front: L C R, Side: L R, LFE
Частота : 48,0 КГц
Частота кадров : 31,250 кадров/сек (1536 spf)
Битовая глубина : 16 бит
Метод сжатия : С потерями
Размер потока : 237 Мбайт (6%)
Язык : Russian
Default : Да
Forced : Нет

Аудио #2
Идентификатор : 3
Формат : AC-3
Формат/Информация : Audio Coding 3
Параметр Endianness формата : Big
Идентификатор кодека : A_AC3
Продолжительность : 1 ч. 26 м.
Вид битрейта : Постоянный
Битрейт : 640 Кбит/сек
Каналы : 6 каналов
Расположение каналов : Front: L C R, Side: L R, LFE
Частота : 48,0 КГц
Частота кадров : 31,250 кадров/сек (1536 spf)
Битовая глубина : 16 бит
Метод сжатия : С потерями
Размер потока : 395 Мбайт (11%)
Язык : French
Default : Нет
Forced : Нет

Меню
00:00:00.000 : en:Chapter 1
00:09:55.219 : en:Chapter 2
00:20:32.856 : en:Chapter 3
00:31:04.320 : en:Chapter 4
00:41:33.365 : en:Chapter 5
00:53:13.899 : en:Chapter 6
01:02:34.167 : en:Chapter 7
01:12:06.322 : en:Chapter 8
01:20:05.592 : en:Chapter 9
12345678910
5.3 из 10
голосов: 10
Источник http://arutor.org

Внимание! AdBlock блокирует показ скриншотов, все вопросы к разработчикам )))
Трекер:  [ 19-Сен-2017 18:40 ]

  

Скачать .torrent

Размер .torrent файла 18 KB


Размер: 3.63 GB
Хэш (hash) релиза: edf9cec015c275746d260c0797f77df09a05d874
Подписка на обновления:

Торренты, похожие на Развод по-французски Papa ou maman 2 скачать торрент

Форум Название Автор Размер S L Добавлен
Зарубежные фильмы 2016-2019 (Новинки зарубежного кино) ·· Развод по-французски / Papa ou maman 2 (Мартин Бурбулон / Martin Bourboulon) [2016, Франция, Бельгия, комедия, BDRip-AVC] Dub Galfimbul 15355584031.43 GB 0 0 1506627026

22:30

28-Сен-17

Зарубежные фильмы 2016-2019 (Новинки зарубежного кино) ·· Развод по-французски / Papa ou maman 2 (Мартин Бурбулон / Martin Bourboulon) [2016, Франция, Бельгия, комедия, BDRip] Dub (iTunes) Galfimbul 778506240742 MB 0 0 1505682082

00:01

18-Сен-17

Зарубежные фильмы 2016-2019 (Новинки зарубежного кино) ·· Развод по-французски / Papa ou maman 2 (Мартин Бурбулон / Martin Bourboulon) [2016, Франция, Бельгия, комедия, BDRip] Dub (iTunes) Galfimbul 15638691841.46 GB 0 0 1505667678

20:01

17-Сен-17

Зарубежные фильмы 2016-2019 (Новинки зарубежного кино) ·· Развод по-французски / Papa ou maman 2 (Мартин Бурбулон) [2016, комедия, HDRip] Galfimbul 14677667841.37 GB 0 0 1492108956

21:42

13-Апр-17

Еще никто не оставлял запись к записи скачать торрент Развод по-французски Papa ou maman 2 . Будь первым!

!Обратная связь