Скачать через торрент Развод по-французски Papa ou maman 2 Фильм бесплатно в хорошем качестве torrent

Скачивайте на UnionPeer.org фильмы через торрент без регистрации. Новинки кино в хорошем качестве через торрент. На UnionPeer.org можно скачать через торрент фильмы 2014 и 2015 годов. Самые новые фильмы.

Скачать торрент Развод по-французски Papa ou maman 2 бесплатно через .torrent фильм мультфильм сериал

Статистика раздачи
Размер:  1.43 GB   |    Зарегистрирован:  6 лет 4 месяца   |    .torrent скачан:  43 раза   |   
Раздают:  1  
 

Скачать Развод по-французски / Papa ou maman 2 (Мартин Бурбулон / Martin Bourboulon) [2016, Франция, Бельгия, комедия, BDRip-AVC] Dub через torrent

 
 
Автор Сообщение

Galfimbul

avatar Galfimbul


Развод по-французски / Papa ou maman 2
«Супруги бывшими не бывают»
Страна: Франция, Бельгия
Жанр: комедия
Год выпуска: 2016
Продолжительность: 01:26:21Перевод: Профессиональный (дублированный) iTunes
Субтитры: нет
Оригинальная аудиодорожка: нетРежиссер: Мартин Бурбулон / Martin BourboulonВ ролях: Лоран Лафитт, Марина Фоис, Александр Десрусу, Анна Лемаршан, Акилле Потье, Микаэль Абитбуль, Жюдит Эль Зейн, Сара ЖиродоОписание: История о разводящихся супругах Винсенте и Флоранс, которые не брезговали никакими методами, лишь переложить друг на друга опеку над тремя детьми. Их война, казалось бы, давно завершилась, но спустя два года оба непутевых родителя встречают новую любовь и опять вступают в борьбу отцов и матерей. Дети, оставаясь главными жертвами, вмешиваются в эту баталию, чтобы навсегда разорвать порочный круг. Качество видео: BDRip-AVC / Papa.Ou.Maman.2.BDREMUX.1080p.ExKinoRay
Формат видео: MKVВидео: MPEG-4 AVC, 1024x428 (2.40:1), 23.976 fps, ~1940 kbps avg, 0.185 bit/pixel
Аудио: 48 kHz, AC3 Dolby Digital, 3/2 (L,C,R,l,r) + LFE ch, ~384 kbps avg
Complete name : D:\Раздачи\Развод по-французски (2016) BDRip-AVC_ivanes20031987.mkvFormat : MatroskaFormat version : Version 2File size : 1.43 GiBDuration : 1 h 26 minOverall bit rate : 2 371 kb/sEncoded date : UTC 2017-09-22 20:24:25Writing application : mkvmerge v4.4.0 ('Die Wiederkehr') сборка от Jan 3 2011 21:40:45Writing library : libebml v1.0.0 + libmatroska v1.0.0

VideoID : 1Format : AVCFormat/Info : Advanced Video CodecFormat profile : [email protected] settings, CABAC : YesFormat settings, RefFrames : 14 framesCodec ID : V_MPEG4/ISO/AVCDuration : 1 h 26 minBit rate : 1 940 kb/sWidth : 1 024 pixelsHeight : 428 pixelsDisplay aspect ratio : 2.40:1Frame rate mode : ConstantFrame rate : 23.976 (24000/1001) FPSColor space : YUVChroma subsampling : 4:2:0Bit depth : 8 bitsScan type : ProgressiveBits/(Pixel*Frame) : 0.185Stream size : 1.17 GiB (82%)Writing library : x264 core 152 r2851kMod ba24899Encoding settings : cabac=1 / ref=14 / deblock=1:-3:-2 / analyse=0x3:0x113 / me=umh / subme=10 / psy=1 / fade_compensate=0.00 / psy_rd=1.00:0.00 / mixed_ref=1 / me_range=32 / chroma_me=1 / trellis=2 / 8x8dct=1 / cqm=0 / deadzone=21,11 / fast_pskip=0 / chroma_qp_offset=-2 / threads=13 / lookahead_threads=3 / sliced_threads=0 / nr=0 / decimate=0 / interlaced=0 / bluray_compat=0 / constrained_intra=0 / bframes=14 / b_pyramid=2 / b_adapt=2 / b_bias=0 / direct=1 / weightb=1 / open_gop=0 / weightp=2 / keyint=240 / keyint_min=23 / scenecut=40 / intra_refresh=0 / rc_lookahead=60 / rc=crf / mbtree=1 / crf=16.1000 / qcomp=0.60 / qpmin=0 / qpmax=69 / qpstep=4 / vbv_maxrate=50000 / vbv_bufsize=62500 / crf_max=0.0 / nal_hrd=none / filler=0 / ip_ratio=1.40 / aq=1:1.00Default : YesForced : No

AudioID : 2Format : AC-3Format/Info : Audio Coding 3Format settings, Endianness : BigCodec ID : A_AC3Duration : 1 h 26 minBit rate mode : ConstantBit rate : 384 kb/sChannel(s) : 6 channelsChannel positions : Front: L C R, Side: L R, LFESampling rate : 48.0 kHzFrame rate : 31.250 FPS (1536 SPF)Bit depth : 16 bitsCompression mode : LossyStream size : 237 MiB (16%)Title : iTunesLanguage : RussianService kind : Complete MainDefault : YesForced : No


Внимание! AdBlock блокирует показ скриншотов, все вопросы к разработчикам )))
Трекер:  [ 28-Сен-2017 22:30 ]

  

Скачать .torrent

Размер .torrent файла 14 KB


Размер: 1.43 GB
Хэш (hash) релиза: 1f70ee292f1db8f9086cdc3dd6c608ce998e13fb
Подписка на обновления:

Торренты, похожие на Развод по-французски Papa ou maman 2 скачать торрент

Форум Название Автор Размер S L Добавлен
Зарубежные фильмы 2016-2019 (Новинки зарубежного кино) ·· Развод по-французски / Papa ou maman 2 (Мартин Бурбулон / Martin Bourboulon) [2016, Франция, Бельгия, комедия, BDRip 720p] iTunes Galfimbul 38992463963.63 GB 0 0 1505835643

18:40

19-Сен-17

Зарубежные фильмы 2016-2019 (Новинки зарубежного кино) ·· Развод по-французски / Papa ou maman 2 (Мартин Бурбулон / Martin Bourboulon) [2016, Франция, Бельгия, комедия, BDRip] Dub (iTunes) Galfimbul 778506240742 MB 0 0 1505682082

00:01

18-Сен-17

Зарубежные фильмы 2016-2019 (Новинки зарубежного кино) ·· Развод по-французски / Papa ou maman 2 (Мартин Бурбулон / Martin Bourboulon) [2016, Франция, Бельгия, комедия, BDRip] Dub (iTunes) Galfimbul 15638691841.46 GB 0 0 1505667678

20:01

17-Сен-17

Зарубежные фильмы 2016-2019 (Новинки зарубежного кино) ·· Развод по-французски / Papa ou maman 2 (Мартин Бурбулон) [2016, комедия, HDRip] Galfimbul 14677667841.37 GB 0 0 1492108956

21:42

13-Апр-17

Еще никто не оставлял запись к записи скачать торрент Развод по-французски Papa ou maman 2 . Будь первым!

!Обратная связь