Скачать через торрент Берлинский синдром Berlin Syndrome Фильм бесплатно в хорошем качестве torrent

Скачивайте на UnionPeer.org фильмы через торрент без регистрации. Новинки кино в хорошем качестве через торрент. На UnionPeer.org можно скачать через торрент фильмы 2014 и 2015 годов. Самые новые фильмы.

Скачать торрент Берлинский синдром Berlin Syndrome бесплатно через .torrent фильм мультфильм сериал

Статистика раздачи
Размер:  5.01 GB   |    Зарегистрирован:  5 лет 9 месяцев   |    .torrent скачан:  60 раз   |   
Раздают:  1  
   
 
Автор Сообщение

Galfimbul

avatar Galfimbul


Берлинский синдром / Berlin Syndrome

Страна: Австралия, Германия
Студия: Aquarius Films, DDP Studios, Entertainment One, Film Victoria
Жанр: триллер, драма, детектив
Год выпуска: 2016
Продолжительность: 01:51:36

Перевод 1: Профессиональный (дублированный)
Перевод 2: Одноголосный закадровый BadBajo
Субтитры: русские, английские
Оригинальная аудио дорожка: английская

Режиссер: Кейт Шортланд / Cate Shortland

В ролях: Тереза Палмер, Макс Римельт, Люси Арон, Сем Тункай, Маттиас Хабих, Эмма Бадинг, Майя Абсберг, Морган Ферру, Кристина Костив, Чарли Торн

Описание: Во время отпуска в Берлине Клэр знакомится с обаятельным Энди и между ними сразу возникает влечение. После совместной прогулки по городу они проводят ночь вместе, но то, что на первый взгляд кажется началом бурного романа, неожиданно принимает зловещий оборот.

Доп. информация: Навигация по главам присутствует.

Сэмпл: http://sendfile.su/1416056

Тип релиза: BDRip 720p
Контейнер: MKV
Видео: MPEG4/AVC, 2.40:1, 25.000 FPS, 1280x536p, 4020 kb/s
Аудио 1: Русский / AC-3, 48.0 kHz, 5.1, 384 kb/s | дублированное [iTunes]
Аудио 2: Русский / AC-3, 48.0 kHz, 5.1, 384 kb/s | одноголосный, BadBajo
Аудио 3: Английский / DTS, 48.0 kHz, 5.1, 1509 kb/s | оригинал
Формат субтитров: softsub (SRT)
Релиз:
x264 [info]: profile High, level 4.1
x264 [info]: frame I:1053 Avg QP:11.77 size: 91753
x264 [info]: frame P:33243 Avg QP:13.47 size: 45295
x264 [info]: frame B:133112 Avg QP:15.40 size: 14033
x264 [info]: consecutive B-frames: 1.3% 1.6% 6.4% 12.6% 13.5% 53.7% 7.2% 1.0% 1.4% 0.5% 0.7%

Формат : Matroska
Версия формата : Version 2
Размер файла : 5,01 Гбайт
Продолжительность : 1 ч. 51 м.
Общий поток : 6425 Кбит/сек
Название фильма : Berlin.Syndrome.2017 - by RUTRACKER
Дата кодирования : UTC 2017-09-24 17:44:34
Программа кодирования : mkvmerge v7.6.0 ('Garden of Dreams') 32bit built on Feb 11 2015 00:18:47
Библиотека кодирования : libebml v1.3.1 + libmatroska v1.4.2
Обложка : Yes
Attachments : cover.jpg

Видео
Идентификатор : 1
Формат : AVC
Формат/Информация : Advanced Video Codec
Профиль формата : [email protected]
Параметр CABAC формата : Да
Параметр RefFrames формата : 12 кадров
Идентификатор кодека : V_MPEG4/ISO/AVC
Продолжительность : 1 ч. 51 м.
Битрейт : 4020 Кбит/сек
Ширина : 1280 пикселей
Высота : 536 пикселей
Соотношение сторон : 2,40:1
Режим частоты кадров : Постоянный
Частота кадров : 25,000 кадров/сек
Цветовое пространство : YUV
Субдискретизация насыщенности : 4:2:0
Битовая глубина : 8 бит
Тип развёртки : Прогрессивная
Бит/(Пиксели*Кадры) : 0.234
Размер потока : 3,13 Гбайт (63%)
Заголовок : Berlin.Syndrome.2017 - ripped by <<LION1234>>
Библиотека кодирования : x264 core 152 r2851 ba24899
Настройки программы : cabac=1 / ref=12 / deblock=1:-3:-3 / analyse=0x3:0x113 / me=umh / subme=10 / psy=1 / psy_rd=1.00:0.00 / mixed_ref=1 / me_range=24 / chroma_me=1 / trellis=2 / 8x8dct=1 / cqm=0 / deadzone=21,11 / fast_pskip=1 / chroma_qp_offset=-2 / threads=6 / lookahead_threads=1 / sliced_threads=0 / nr=0 / decimate=0 / interlaced=0 / bluray_compat=0 / constrained_intra=0 / bframes=10 / b_pyramid=2 / b_adapt=2 / b_bias=0 / direct=1 / weightb=1 / open_gop=0 / weightp=2 / keyint=250 / keyint_min=23 / scenecut=40 / intra_refresh=0 / rc_lookahead=60 / rc=crf / mbtree=0 / crf=15.6 / qcomp=0.67 / qpmin=0 / qpmax=69 / qpstep=4 / vbv_maxrate=62500 / vbv_bufsize=78125 / crf_max=0.0 / nal_hrd=none / filler=0 / ip_ratio=1.40 / pb_ratio=1.30 / aq=1:0.76
Default : Да
Forced : Нет
Statistics Tags Issue : mkvmerge v15.0.0 ('Duel with the Devil') 64-bit 2017-09-24 15:48:43 / mkvmerge v7.6.0 ('Garden of Dreams') 32bit built on Feb 11 2015 00:18:47 2017-09-24 17:44:34
FromStats_BitRate : 4145912
FromStats_Duration : 01:51:36.320000000
FromStats_FrameCount : 167408
FromStats_StreamSize : 3470294440

Аудио #1
Идентификатор : 2
Формат : AC-3
Формат/Информация : Audio Coding 3
Параметр Endianness формата : Big
Идентификатор кодека : A_AC3
Продолжительность : 1 ч. 51 м.
Вид битрейта : Постоянный
Битрейт : 384 Кбит/сек
Каналы : 6 каналов
Расположение каналов : Front: L C R, Side: L R, LFE
Частота : 48,0 КГц
Частота кадров : 31,250 кадров/сек (1536 SPF)
Битовая глубина : 16 бит
Метод сжатия : С потерями
Размер потока : 307 Мбайт (6%)
Заголовок : дубляж
Язык : Russian
ServiceKind/String : Complete Main
Default : Да
Forced : Нет

Аудио #2
Идентификатор : 3
Формат : AC-3
Формат/Информация : Audio Coding 3
Параметр Endianness формата : Big
Идентификатор кодека : A_AC3
Продолжительность : 1 ч. 51 м.
Вид битрейта : Постоянный
Битрейт : 384 Кбит/сек
Каналы : 6 каналов
Расположение каналов : Front: L C R, Side: L R, LFE
Частота : 48,0 КГц
Частота кадров : 31,250 кадров/сек (1536 SPF)
Битовая глубина : 16 бит
Метод сжатия : С потерями
Размер потока : 307 Мбайт (6%)
Заголовок : любительский одноголсный
Язык : Russian
ServiceKind/String : Complete Main
Default : Нет
Forced : Нет

Аудио #3
Идентификатор : 4
Формат : DTS
Формат/Информация : Digital Theater Systems
Режим : 16
Параметр Endianness формата : Big
Идентификатор кодека : A_DTS
Продолжительность : 1 ч. 51 м.
Вид битрейта : Постоянный
Битрейт : 1509 Кбит/сек
Каналы : 6 каналов
Расположение каналов : Front: L C R, Side: L R, LFE
Частота : 48,0 КГц
Частота кадров : 93,750 кадра/сек (512 SPF)
Битовая глубина : 24 бит
Метод сжатия : С потерями
Размер потока : 1,18 Гбайт (23%)
Заголовок : оригинал
Язык : English
Default : Нет
Forced : Нет

Текст #1
Идентификатор : 5
Формат : UTF-8
Идентификатор кодека : S_TEXT/UTF8
Идентификатор кодека/Информация : UTF-8 Plain Text
Заголовок : русские
Язык : Russian
Default : Нет
Forced : Нет

Текст #2
Идентификатор : 6
Формат : UTF-8
Идентификатор кодека : S_TEXT/UTF8
Идентификатор кодека/Информация : UTF-8 Plain Text
Заголовок : английские
Язык : English
Default : Нет
Forced : Нет

Меню
00:00:00.000 : en:Chapter 1
00:06:05.080 : en:Chapter 2
00:14:47.840 : en:Chapter 3
00:24:45.200 : en:Chapter 4
00:36:56.080 : en:Chapter 5
00:45:32.720 : en:Chapter 6
00:51:47.160 : en:Chapter 7
01:00:08.320 : en:Chapter 8
01:09:28.720 : en:Chapter 9
01:20:33.520 : en:Chapter 10
01:27:53.200 : en:Chapter 11
01:37:26.640 : en:Chapter 12
01:46:31.520 : en:Chapter 13


Внимание! AdBlock блокирует показ скриншотов, все вопросы к разработчикам )))
Трекер:  [ 28-Апр-2018 23:30 ]

  

Скачать .torrent

Размер .torrent файла 13 KB


Размер: 5.01 GB
Хэш (hash) релиза: bb0ccfb5d8a006898f613875e200d7f203a28e2b
Подписка на обновления:

Торренты, похожие на Берлинский синдром Berlin Syndrome скачать торрент

Форум Название Автор Размер S L Добавлен
Зарубежные фильмы 2016-2019 (Новинки зарубежного кино) ·%· Берлинский синдром / Berlin Syndrome (2017) BDRip от MegaPeer | UK Transfer | Лицензия Galfimbul 15681901091.46 GB 0 0 1589543407

14:50

15-Май-20

Зарубежные фильмы 2016-2019 (Новинки зарубежного кино) ·· Берлинский синдром / Berlin Syndrome (Кейт Шортланд / Cate Shortland) [2017, Австралия, Германия, триллер, драма, детектив, BDRip] Dub + Original Eng + Sub Rus, Eng Galfimbul 23402891652.18 GB 0 0 1510675285

19:01

14-Ноя-17

Зарубежные фильмы 2016-2019 (Новинки зарубежного кино) ·· Берлинский синдром / Berlin Syndrome (Кейт Шортланд / Cate Shortland) [2017, Австралия, Германия, триллер, драма, детектив, WEB-DLRip-AVC] Dub Galfimbul 15597778261.45 GB 0 0 1503514894

22:01

23-Авг-17

Зарубежные фильмы 2016-2019 (Новинки зарубежного кино) ·· Берлинский синдром / Berlin Syndrome (Кейт Шортланд / Cate Shortland) [2017, Австралия, Германия, триллер, драма, детектив, WEB-DLRip] Dub Galfimbul 15658496001.46 GB 0 0 1503514873

22:01

23-Авг-17

Зарубежные фильмы 2016-2019 (Новинки зарубежного кино) ·· Берлинский синдром / Berlin Syndrome (Кейт Шортланд / Cate Shortland) [2017, Австралия, Германия, Триллер, WEB-DL 1080p] iTunes Galfimbul 46295265354.31 GB 0 0 1503261046

23:30

20-Авг-17

Зарубежные фильмы 2016-2019 (Новинки зарубежного кино) ·· Берлинский синдром / Berlin Syndrome (Кейт Шортланд / Cate Shortland) [2017, Австралия, Германия, Триллер, WEB-DL 720p] iTunes Galfimbul 41357288523.85 GB 0 0 1503261037

23:30

20-Авг-17

Зарубежные фильмы 2016-2019 (Новинки зарубежного кино) ·· Берлинский синдром / Berlin Syndrome (Кейт Шортланд / Cate Shortland) [2017, Австралия, Германия, Триллер, WEB-DL 1080p] Galfimbul 46296116374.31 GB 0 0 1501224612

09:50

28-Июл-17

Зарубежные фильмы 2016-2019 (Новинки зарубежного кино) ·· Берлинский синдром / Berlin Syndrome (Кейт Шортланд / Cate Shortland) [2017, Австралия, Германия, Триллер, WEB-DLRip] VO (BadBajo) Galfimbul 16253480961.51 GB 0 0 1496596203

20:10

4-Июн-17

Еще никто не оставлял запись к записи скачать торрент Берлинский синдром Berlin Syndrome . Будь первым!

!Обратная связь