Скачать через торрент [VIDEO] Геошторм Geostorm бесплатно русская версия torrent активатор

Статистика раздачи
Размер:  1.37 GB   |    Зарегистрирован:  2 месяца 15 дней   |    .torrent скачан:  29 раз   |   
Раздают:  1  
   
загрузка...
 
Автор Сообщение

Galfimbul

avatar Galfimbul


Геошторм / Geostorm


Год выпуска: 2017
Страна: США
Жанр: фантастика, боевик, триллер
Продолжительность: 01:49:07
Перевод №1: русский Профессиональный (полное дублирование) Blu-Ray EUR
Перевод №2: украинский Профессиональный (полное дублирование) студия Postmodern
Оригинальная дорожка: Есть
Субтитры: русские (форсированные), (полные), украинские (форсированные), английские (форс.-хардсаб), (полные), (SDH)
Режиссер: Дин Девлин / Dean Devlin
В ролях: Джерард Батлер, Джим Стёрджесс, Эбби Корниш, Александра Мария Лара, Дэниэл Ву, Эухенио Дербес, Амр Вакед, Эдеперо Одуйе, Энди Гарсиа, Эд Харрис, Роберт Шиэн, Ричард Шифф, Мэр Уиннингхэм и другие .
Описание: После беспрецедентной серии стихийных бедствий, обрушившихся на нашу планету, лидеры мировых держав объединили усилия, чтобы создать разветвленную сеть орбитальных спутников по контролю над климатом для предотвращения природных катаклизмов. Но что-то пошло не так — система, выстроенная для защиты Земли, теперь угрожает ей. Начинается гонка наперегонки со временем, в которой надо успеть обнаружить реальную угрозу до того, как всемирный Геошторм сотрёт с лица Земли всё живое .
Релиз группы

Качество: BDRip / рип с Blu-ray disc 1080p [EUR]
Формат: MP4
Видео кодек: H.264
Аудио кодек: AAC
Видео: 960x400 AR:2.40 1400 kbps 23.976 fps
Аудио №1: [Russian] 2ch 48 kHz 128 kbps - [Dub] Профессиональный (полное дублирование) Blu-Ray EUR
Аудио №2: [Ukrainian] 2ch 48 kHz 128 kbps - [Dub] Профессиональный (полное дублирование) студия Postmodern
Аудио №3: [English] 2ch 48 kHz 128 kbps - Original
avs [info]: 960x400p 1:1 @ 24000/1001 fps (cfr)
x264 [info]: using SAR=1/1
x264 [info]: using cpu capabilities: MMX2 SSE2Fast SSSE3 SSE4.2 AVX FMA3 BMI2 AVX2
x264 [info]: profile High, level 4.1

x264 [info]: frame I:1676 Avg QP:16.98 size: 50896
x264 [info]: frame P:40520 Avg QP:21.13 size: 14265
x264 [info]: frame B:114779 Avg QP:23.24 size: 4205
x264 [info]: consecutive B-frames: 5.1% 4.9% 11.5% 25.3% 17.5% 27.6% 4.7% 1.8% 1.5%
x264 [info]: mb I I16..4: 6.8% 68.8% 24.4%
x264 [info]: mb P I16..4: 1.8% 9.4% 2.1% P16..4: 35.4% 36.6% 9.8% 0.0% 0.0% skip: 4.9%
x264 [info]: mb B I16..4: 0.1% 1.0% 0.2% B16..8: 36.2% 16.5% 2.2% direct: 4.0% skip:39.8% L0:43.8% L1:44.9% BI:11.3%
x264 [info]: 8x8 transform intra:70.8% inter:62.5%
x264 [info]: direct mvs spatial:95.8% temporal:4.2%
x264 [info]: coded y,uvDC,uvAC intra: 78.6% 78.1% 50.7% inter: 17.6% 17.3% 7.0%
x264 [info]: i16 v,h,dc,p: 25% 15% 4% 56%
x264 [info]: i8 v,h,dc,ddl,ddr,vr,hd,vl,hu: 7% 7% 6% 10% 15% 14% 15% 12% 14%
x264 [info]: i4 v,h,dc,ddl,ddr,vr,hd,vl,hu: 9% 10% 10% 9% 14% 13% 14% 10% 13%
x264 [info]: i8c dc,h,v,p: 33% 29% 18% 20%
x264 [info]: Weighted P-Frames: Y:16.8% UV:12.2%
x264 [info]: ref P L0: 49.9% 10.1% 16.4% 6.7% 5.5% 3.8% 3.1% 1.8% 2.1% 0.5% 0.1%
x264 [info]: ref B L0: 74.9% 11.0% 5.7% 2.8% 2.8% 1.6% 0.9% 0.3%
x264 [info]: ref B L1: 94.5% 5.5%
x264 [info]: kb/s:1400.27

encoded 156975 frames, 17.13 fps, 1400.27 kb/s
GeneralComplete name : K:\Torrents\Geostorm.2017.BDRip.x264.960x.rip by Frost O.S.mp4Format : MPEG-4Format profile : 3GPP Release 6 GeneralCodec ID : 3gg6 (isom/3gg6/mp42)File size : 1.37 GiBDuration : 1 h 49 minOverall bit rate mode : VariableOverall bit rate : 1 792 kb/sEncoded date : UTC 2018-08-01 13:09:32Tagged date : UTC 2018-08-01 13:09:32

VideoID : 1Format : AVCFormat/Info : Advanced Video CodecFormat profile : High@L4.1Format settings : CABAC / 9 Ref FramesFormat settings, CABAC : YesFormat settings, RefFrames : 9 framesCodec ID : avc1Codec ID/Info : Advanced Video CodingDuration : 1 h 49 minBit rate : 1 400 kb/sMaximum bit rate : 5 837 kb/sWidth : 960 pixelsHeight : 400 pixelsDisplay aspect ratio : 2.40:1Frame rate mode : ConstantFrame rate : 23.976 (24000/1001) FPSColor space : YUVChroma subsampling : 4:2:0Bit depth : 8 bitsScan type : ProgressiveBits/(Pixel*Frame) : 0.152Stream size : 1.07 GiB (78%)Writing library : x264 core 152 r2851 ba24899Encoding settings : cabac=1 / ref=9 / deblock=1:-2:-1 / analyse=0x3:0x113 / me=umh / subme=11 / psy=1 / psy_rd=0.95:0.00 / mixed_ref=1 / me_range=32 / chroma_me=1 / trellis=2 / 8x8dct=1 / cqm=0 / deadzone=21,11 / fast_pskip=0 / chroma_qp_offset=-2 / threads=6 / lookahead_threads=1 / sliced_threads=0 / nr=0 / decimate=0 / interlaced=0 / bluray_compat=0 / constrained_intra=0 / bframes=8 / b_pyramid=2 / b_adapt=2 / b_bias=0 / direct=3 / weightb=1 / open_gop=0 / weightp=2 / keyint=250 / keyint_min=23 / scenecut=40 / intra_refresh=0 / rc=2pass / mbtree=0 / bitrate=1400 / ratetol=1.0 / qcomp=0.70 / qpmin=0 / qpmax=69 / qpstep=4 / cplxblur=20.0 / qblur=0.5 / ip_ratio=1.40 / pb_ratio=1.30 / aq=1:0.70Encoded date : UTC 2018-07-31 19:32:06Tagged date : UTC 2018-08-01 13:09:46Color range : LimitedColor primaries : BT.709Transfer characteristics : BT.709Matrix coefficients : BT.709

Audio #1ID : 2Format : AACFormat/Info : Advanced Audio CodecFormat profile : LCCodec ID : mp4a-40-2Duration : 1 h 49 minBit rate mode : VariableBit rate : 128 kb/sMaximum bit rate : 134 kb/sChannel(s) : 2 channelsChannel positions : Front: L RSampling rate : 48.0 kHzFrame rate : 46.875 FPS (1024 SPF)Compression mode : LossyStream size : 99.9 MiB (7%)Title : Russian / Dub, Blu-Ray EUREncoded date : UTC 2018-08-01 12:54:48Tagged date : UTC 2018-08-01 13:09:46

Audio #2ID : 3Format : AACFormat/Info : Advanced Audio CodecFormat profile : LCCodec ID : mp4a-40-2Duration : 1 h 49 minBit rate mode : VariableBit rate : 128 kb/sMaximum bit rate : 133 kb/sChannel(s) : 2 channelsChannel positions : Front: L RSampling rate : 48.0 kHzFrame rate : 46.875 FPS (1024 SPF)Compression mode : LossyStream size : 99.9 MiB (7%)Title : Ukrainian / Dub, PostmodernEncoded date : UTC 2018-08-01 12:58:17Tagged date : UTC 2018-08-01 13:09:46

Audio #3ID : 4Format : AACFormat/Info : Advanced Audio CodecFormat profile : LCCodec ID : mp4a-40-2Duration : 1 h 49 minBit rate mode : VariableBit rate : 128 kb/sMaximum bit rate : 134 kb/sChannel(s) : 2 channelsChannel positions : Front: L RSampling rate : 48.0 kHzFrame rate : 46.875 FPS (1024 SPF)Compression mode : LossyStream size : 99.9 MiB (7%)Title : English / OriginalEncoded date : UTC 2018-08-01 12:50:25Tagged date : UTC 2018-08-01 13:09:46

Text #1ID : 5Format : Timed TextCodec ID : tx3gDuration : 1 h 40 minBit rate mode : VariableBit rate : 3 b/sStream size : 2.11 KiB (0%)Title : Russian / ForcedForced : NoEncoded date : UTC 2018-08-01 13:09:46Tagged date : UTC 2018-08-01 13:09:46

Text #2ID : 6Format : Timed TextCodec ID : tx3gDuration : 1 h 43 minBit rate mode : VariableBit rate : 119 b/sStream size : 90.0 KiB (0%)Title : Russian / FullForced : NoEncoded date : UTC 2018-08-01 13:09:46Tagged date : UTC 2018-08-01 13:09:46

Text #3ID : 7Format : Timed TextCodec ID : tx3gDuration : 1 h 43 minBit rate mode : VariableBit rate : 5 b/sStream size : 3.94 KiB (0%)Title : Ukrainian / ForcedForced : NoEncoded date : UTC 2018-08-01 13:09:46Tagged date : UTC 2018-08-01 13:09:46

Text #4ID : 8Format : Timed TextCodec ID : tx3gDuration : 1 h 41 minBit rate mode : VariableBit rate : 83 b/sStream size : 62.2 KiB (0%)Title : English / FullForced : NoEncoded date : UTC 2018-08-01 13:09:46Tagged date : UTC 2018-08-01 13:09:46

Text #5ID : 9Format : Timed TextCodec ID : tx3gDuration : 1 h 41 minBit rate mode : VariableBit rate : 79 b/sStream size : 59.2 KiB (0%)Title : English / SDHForced : NoEncoded date : UTC 2018-08-01 13:09:46Tagged date : UTC 2018-08-01 13:09:46


Трекер:  [ 01-Авг-2018 16:36 ]

  

Скачать .torrent

Размер .torrent файла 14 KB


Размер: 1.37 GB
Хэш (hash) релиза: 5e0acf7b4ba3d2850836b92e0372473b0a5aac41

Еще никто не оставлял запись к записи скачать торрент [VIDEO] Геошторм Geostorm . Будь первым!

!Обратная связь