Скачать через торрент Любовник моей жены Amoureux de ma femme Фильм бесплатно в хорошем качестве torrent

Скачивайте на UnionPeer.org фильмы через торрент без регистрации. Новинки кино в хорошем качестве через торрент. На UnionPeer.org можно скачать через торрент фильмы 2014 и 2015 годов. Самые новые фильмы.

Скачать торрент Любовник моей жены Amoureux de ma femme бесплатно через .torrent фильм мультфильм сериал

Статистика раздачи
Размер:  4.06 GB   |    Зарегистрирован:  10 дней   |    .torrent скачан:  17 раз   |   
Раздают:  1  
   
загрузка...
 
Автор Сообщение

Galfimbul

avatar Galfimbul


Любовник моей жены /Amoureux de ma femme

Год выхода: 2018
Жанр: драма, мелодрама, комедия
Режиссер: Даниель Отой
В ролях: Сандрин Киберлэн, Адриана Угарте, Жерар Депардье, Даниель Отой, Кристина Кревиллен, Жофрей Платель, Бриджитт Обри, Моника Ледесма

О фильме:
Даниэль очень любит свою жену и наслаждается семейным уютом, но все рушится в один прекрасный день, когда лучший друг Патрик настаивает на парном ужине, на который приводит свою новую девушку. Эмма оказывается молодой красавицей и сразу покоряет нашего героя. И вот он уже не видит перед собой: ни друга, ни обеденного стола, не слышит разговор и полностью окунается в мир собственных фантазий, где видит только ее карие глаза, соблазнительную улыбку и плавные волнующие изгибы.



Страна: Франция, Бельгия
Студия: A Plus Image 8, Cin?, Cin?mage 12, Cofimage 29, Curiosa Films, France 3 Cin?ma, France T?l?visions, Inver Tax Shelter, OCS, Tax Shelter du Gouvernement F?d?ral Belge, Versus Production, Zack Films
Продолжительность: 82 мин. / 01:22
Перевод: профессиональный (дублированный) лицензия

Файл
Кодек: MPEG2
Качество: DVD5
Видео: PAL 16:9 (720x576@1024x576) VBR 6481 Kbps, 25.000 fps
Аудио: Dolby AC3, 6 ch, 48.0 KHz, 448 Kbps (русский)
Субтитры: отсутствуют
Общее
Полное имя : Lubovnik.moeii.Gwnyi.2018.DVD5VIDEO_TSVTS_01_1.VOB
Формат : MPEG-PS
Размер файла : 1000 Мбайт
Продолжительность : 19 м. 46 с.
Режим общего битрейта : Переменный
Общий поток : 7070 Кбит/сек

Видео
Идентификатор : 224 (0xE0)
Формат : MPEG Video
Версия формата : Version 2
Профиль формата : Main@Main
Настройки формата : CustomMatrix / BVOP
Параметр BVOP формата : Да
Параметр матрицы формата : Выборочная
Параметр GOP формата : M=3, N=15
Продолжительность : 19 м. 46 с.
Вид битрейта : Переменный
Битрейт : 6481 Кбит/сек
Максимальный битрейт : 8000 Кбит/сек
Ширина : 720 пикселей
Высота : 576 пикселей
Соотношение сторон : 16:9
Частота кадров : 25,000 кадров/сек
Стандарт вещания : PAL
Цветовое пространство : YUV
Субдискретизация насыщенности : 4:2:0
Битовая глубина : 8 бит
Тип развёртки : Прогрессивная
Метод сжатия : С потерями
Бит/(Пиксели*Кадры) : 0.625
Временной код первого кадра : 00:00:00:00
Оригинал временного кода : Group of pictures header
GOP, открыто/закрыто : Открыто
GOP, открыто/закрыто на первом кадре : Закрыто
Размер потока : 917 Мбайт (92%)

Аудио
Идентификатор : 189 (0xBD)-128 (0x80)
Формат : AC-3
Формат/Информация : Audio Coding 3
Режим смешивания : DVD-Video
Продолжительность : 19 м. 46 с.
Вид битрейта : Постоянный
Битрейт : 448 Кбит/сек
Каналы : 6 каналов
Расположение каналов : Front: L C R, Side: L R, LFE
Частота : 48,0 КГц
Частота кадров : 31,250 кадров/сек (1536 SPF)
Битовая глубина : 16 бит
Метод сжатия : С потерями
Размер потока : 63,4 Мбайт (6%)

Меню
Источник http://BlaTor.org

Трекер:  [ 11-Янв-2019 22:10 ]

  

Скачать .torrent

Размер .torrent файла 21 KB


Размер: 4.06 GB
Хэш (hash) релиза: 8898c5bc01ef30817ea87b308383a7db260107ce
Подписка на обновления:

Еще никто не оставлял запись к записи скачать торрент Любовник моей жены Amoureux de ma femme . Будь первым!

!Обратная связь