Скачать через торрент Книга джунглей The Jungle Book Фильм бесплатно в хорошем качестве torrent

Скачивайте на UnionPeer.org фильмы через торрент без регистрации. Новинки кино в хорошем качестве через торрент. На UnionPeer.org можно скачать через торрент фильмы 2014 и 2015 годов. Самые новые фильмы.

Скачать торрент Книга джунглей The Jungle Book бесплатно через .torrent фильм мультфильм сериал

Статистика раздачи
Размер:  6.46 GB   |    Зарегистрирован:  4 года 11 месяцев   |    .torrent скачан:  60 раз   |   
Раздают:  1  
 

Скачать Книга джунглей / The Jungle Book (2016) BDRip-HEVC 1080p | Лицензия через torrent

 
 
Автор Сообщение

Galfimbul

avatar Galfimbul


Книга джунглей / The Jungle Book

Год выхода: 2016
Производство: США / Walt Disney Pictures
Жанр: Фэнтези, драма, приключения
Продолжительность: 01:45:54

Режиссер: Джон Фавро
В ролях: Нил Сети, Билл Мюррэй, Бен Кингсли, Идрис Эльба, Лупита Нионго, Скарлетт Йоханссон, Джанкарло Эспозито, Кристофер Уокен, Гарри Шендлинг, Брайтон Роуз, Эмджей Энтони, Макс Фавро, Хлоя Хехтер, Эшер Блинкофф, Нокс Ганьон, Саша Шрайбер, Кай Шрайбер, Джон Фавро, Сэм Рэйми, Расселл Питерс

Описание: Эта удивительная история повествует о маленьком мальчике, которого вырастили в глухом лесу говорящие животные. Он воспитывался в волчьей стае и постигал законы джунглей под присмотром мудрой пантеры Багиры. Однако, всевозрастающая угроза со стороны тигра Шерхана вынуждает его покинуть родной дом и отправиться в ближайшую деревню к людям. Ему предстоит пройти длинный путь к познанию своего прошлого, преисполненный опасными приключениями и захватывающими встречами с медведем Балу, питоном Каа, обезьяним королем Луи и другими лесными жителями.

Качество: BDRip 1080p-HEVC
Видео: HEVC/H.265, 1920x1036, ~7449 Kbps, 10 bit
Аудио 01: AC3, 6 ch, 640 Kbps | Русский, Дублированный (Лицензия)
Аудио 02: AC3, 6 ch, 640 Kbps | Английский, Оригинал
Субтитры: Русские (форсированные, полные), английские (полные)
Общее
Уникальный идентификатор : 42928852168445655731804049797809498827 (0x204BCBD2E83D3F76269E2CD1A714EACB)
Полное имя : Книга джунглей (2016) BDRip 1080p [HEVC] 10 bit.mkv
Формат : Matroska
Версия формата : Version 4
Размер файла : 6,46 Гбайт
Продолжительность : 1 ч. 45 м.
Общий поток : 8732 Кбит/сек
Название фильма : Книга джунглей (2016) Encoded_by_Mr.Fox
Дата кодирования : UTC 2019-03-24 10:46:29
Программа кодирования : mkvmerge v28.0.0 ('Voice In My Head') 64-bit
Библиотека кодирования : libebml v1.3.6 + libmatroska v1.4.9
Обложка : Yes
Attachments : cover.jpg

Видео
Идентификатор : 1
Формат : HEVC
Формат/Информация : High Efficiency Video Coding
Профиль формата : Main [email protected]@High
Идентификатор кодека : V_MPEGH/ISO/HEVC
Продолжительность : 1 ч. 45 м.
Битрейт : 7449 Кбит/сек
Ширина : 1920 пикселей
Высота : 1036 пикселей
Соотношение сторон : 1,85:1
Режим частоты кадров : Постоянный
Частота кадров : 23,976 (23976/1000) кадра/сек
Частота кадров в оригинале : 23,976 (24000/1001) кадра/сек
Цветовое пространство : YUV
Субдискретизация насыщенности : 4:2:0
Битовая глубина : 10 бит
Бит/(Пиксели*Кадры) : 0.156
Размер потока : 5,51 Гбайт (85%)
Заголовок : Книга джунглей (2016) Encoded_by_Mr.Fox
Библиотека кодирования : x265 3.0_Au+4-dcbec33bfb0f:[Windows][MSVC 1916][64 bit] 10bit
Настройки программы : cpuid=1111039 / frame-threads=3 / numa-pools=12 / wpp / no-pmode / no-pme / no-psnr / no-ssim / log-level=2 / input-csp=1 / input-res=1920x1036 / interlace=0 / total-frames=64755 / level-idc=41 / high-tier=1 / uhd-bd=0 / ref=5 / no-allow-non-conformance / no-repeat-headers / annexb / no-aud / no-hrd / info / hash=0 / no-temporal-layers / open-gop / min-keyint=23 / keyint=240 / gop-lookahead=0 / bframes=12 / b-adapt=2 / b-pyramid / bframe-bias=0 / rc-lookahead=60 / lookahead-slices=4 / scenecut=40 / radl=0 / no-splice / no-intra-refresh / ctu=32 / min-cu-size=8 / rect / amp / max-tu-size=32 / tu-inter-depth=4 / tu-intra-depth=4 / limit-tu=1 / rdoq-level=2 / dynamic-rd=0.00 / no-ssim-rd / signhide / no-tskip / nr-intra=0 / nr-inter=0 / no-constrained-intra / no-strong-intra-smoothing / max-merge=4 / limit-refs=2 / limit-modes / me=3 / subme=7 / merange=57 / temporal-mvp / weightp / weightb / no-analyze-src-pics / deblock=-3:-3 / no-sao / no-sao-non-deblock / rd=6 / no-early-skip / no-rskip / no-fast-intra / no-tskip-fast / no-cu-lossless / no-b-intra / no-splitrd-skip / rdpenalty=0 / psy-rd=2.00 / psy-rdoq=1.00 / no-rd-refine / no-lossless / cbqpoffs=0 / crqpoffs=0 / rc=crf / crf=20.0 / qcomp=0.60 / qpstep=4 / stats-write=0 / stats-read=0 / vbv-maxrate=50000 / vbv-bufsize=50000 / vbv-init=0.9 / crf-max=0.0 / crf-min=0.0 / ipratio=1.40 / pbratio=1.30 / aq-mode=1 / aq-strength=1.00 / no-cutree / zone-count=0 / no-strict-cbr / qg-size=32 / no-rc-grain / qpmax=69 / qpmin=0 / no-const-vbv / sar=1 / overscan=0 / videoformat=5 / range=0 / colorprim=2 / transfer=2 / colormatrix=2 / chromaloc=0 / display-window=0 / max-cll=0,0 / min-luma=0 / max-luma=1023 / log2-max-poc-lsb=8 / vui-timing-info / vui-hrd-info / slices=1 / no-opt-qp-pps / no-opt-ref-list-length-pps / no-multi-pass-opt-rps / scenecut-bias=0.05 / no-opt-cu-delta-qp / no-aq-motion / no-hdr / no-hdr-opt / no-dhdr10-opt / no-idr-recovery-sei / analysis-reuse-level=5 / scale-factor=0 / refine-intra=0 / refine-inter=0 / refine-mv=0 / refine-ctu-distortion=0 / no-limit-sao / ctu-info=0 / no-lowpass-dct / refine-analysis-type=0 / copy-pic=1 / max-ausize-factor=1.0 / no-dynamic-refine / no-single-sei / no-hevc-aq / qp-adaptation-range=1.00
Язык : English
Default : Да
Forced : Нет

Аудио #1
Идентификатор : 2
Формат : AC-3
Формат/Информация : Audio Coding 3
Коммерческое название : Dolby Digital
Идентификатор кодека : A_AC3
Продолжительность : 1 ч. 45 м.
Вид битрейта : Постоянный
Битрейт : 640 Кбит/сек
Каналы : 6 каналов
Channel layout : L R C LFE Ls Rs
Частота : 48,0 КГц
Частота кадров : 31,250 кадров/сек (1536 SPF)
Битовая глубина : 16 бит
Метод сжатия : С потерями
Размер потока : 485 Мбайт (7%)
Заголовок : Дубляж
Язык : Russian
Default : Да
Forced : Нет

Аудио #2
Идентификатор : 3
Формат : AC-3
Формат/Информация : Audio Coding 3
Коммерческое название : Dolby Digital
Идентификатор кодека : A_AC3
Продолжительность : 1 ч. 45 м.
Вид битрейта : Постоянный
Битрейт : 640 Кбит/сек
Каналы : 6 каналов
Channel layout : L R C LFE Ls Rs
Частота : 48,0 КГц
Частота кадров : 31,250 кадров/сек (1536 SPF)
Битовая глубина : 16 бит
Метод сжатия : С потерями
Размер потока : 485 Мбайт (7%)
Заголовок : Оригинал
Язык : English
Default : Нет
Forced : Нет

Текст #1
Идентификатор : 4
Формат : UTF-8
Идентификатор кодека : S_TEXT/UTF8
Идентификатор кодека/Информация : UTF-8 Plain Text
Продолжительность : 1 ч. 44 м.
Битрейт : 0 бит/сек
ElementCount : 3
Размер потока : 101 байт (0%)
Заголовок : Rus Forced
Язык : Russian
Default : Да
Forced : Да

Текст #2
Идентификатор : 5
Формат : UTF-8
Идентификатор кодека : S_TEXT/UTF8
Идентификатор кодека/Информация : UTF-8 Plain Text
Продолжительность : 1 ч. 44 м.
Битрейт : 60 бит/сек
ElementCount : 1107
Размер потока : 46,0 Кбайт (0%)
Заголовок : Rus Full
Язык : Russian
Default : Нет
Forced : Нет

Текст #3
Идентификатор : 6
Формат : UTF-8
Идентификатор кодека : S_TEXT/UTF8
Идентификатор кодека/Информация : UTF-8 Plain Text
Продолжительность : 1 ч. 44 м.
Битрейт : 44 бит/сек
ElementCount : 1218
Размер потока : 34,1 Кбайт (0%)
Заголовок : Eng Full
Язык : English
Default : Нет
Forced : Нет

Меню
00:00:00.000 : en:(01)00:00:00:000
00:00:48.214 : en:(02)00:00:48:214
00:05:15.315 : en:(03)00:05:15:315
00:09:02.458 : en:(04)00:09:02:458
00:12:42.178 : en:(05)00:12:42:178
00:16:34.451 : en:(06)00:16:34:451
00:21:20.028 : en:(07)00:21:20:028
00:27:15.133 : en:(08)00:27:15:133
00:35:04.143 : en:(09)00:35:04:143
00:43:21.724 : en:(10)00:43:21:724
00:48:05.132 : en:(11)00:48:05:132
00:53:29.247 : en:(12)00:53:29:247
00:58:03.271 : en:(13)00:58:03:271
01:05:46.442 : en:(14)01:05:46:442
01:10:35.522 : en:(15)01:10:35:522
01:17:01.325 : en:(16)01:17:01:325
01:20:48.927 : en:(17)01:20:48:927
01:24:46.539 : en:(18)01:24:46:539
01:30:32.969 : en:(19)01:30:32:969
01:35:53.205 : en:(20)01:35:53:205
01:45:54.389 : en:(21)01:45:54:389



Источник http://BlaTor.org

Внимание! AdBlock блокирует показ скриншотов, все вопросы к разработчикам )))
Трекер:  [ 24-Мар-2019 14:20 ]

  

Скачать .torrent

Размер .torrent файла 16 KB


Размер: 6.46 GB
Хэш (hash) релиза: 381864a2aad462e0ff0ecf06c46a5de2dfac7936
Подписка на обновления:

Торренты, похожие на Книга джунглей The Jungle Book скачать торрент

Форум Название Автор Размер S L Добавлен
Зарубежные фильмы 2016-2019 (Новинки зарубежного кино) ·%· Книга джунглей / The Jungle Book (2016) BDRemux 1080p | D Galfimbul 3608747511233.61 GB 0 0 1579291209

23:00

17-Янв-20

Зарубежные фильмы 2016-2019 (Новинки зарубежного кино) ·%· Книга джунглей / The Jungle Book (2016) UHD BDRemux 2160p от селезень | 4K | HDR | Лицензия Galfimbul 5588474264652.05 GB 0 0 1579024809

21:00

14-Янв-20

Зарубежные фильмы 2016-2019 (Новинки зарубежного кино) ·%· Книга джунглей / The Jungle Book (2016) UHD BDRip 2160p от селезень | 4K | HDR | Лицензия Galfimbul 1539875142014.34 GB 0 0 1578666650

17:30

10-Янв-20

Зарубежные фильмы 2016-2019 (Новинки зарубежного кино) ·%· Книга джунглей / The Jungle Book (2016) BDRip-HEVC 1080p | Лицензия Galfimbul 77107430257.18 GB 0 0 1548423011

16:30

25-Янв-19

Зарубежные фильмы 2016-2019 (Новинки зарубежного кино) ·· Книга джунглей / The Jungle Book (Джон Фавро / Jon Favreau) [2016, США, Великобритания, фэнтези, приключения, семейный, BDRip] AVO (Юрий Сербин) Galfimbul 15734845441.47 GB 0 0 1514709015

11:30

31-Дек-17

Зарубежные фильмы до 2016 ·· Книга джунглей / The Jungle Book (Джон Фавро / Jon Favreau) [2016, Великобритания, США, фэнтези, драма, приключения, семейный, BD> DVD5 (Custom)] DUB + Sub Rus / Eng + Original Eng Galfimbul 46842327044.36 GB 0 0 1485114416

22:46

22-Янв-17

Зарубежные фильмы до 2016 ·· Книга джунглей / The Jungle Book (Джон Фавро / Jon Favreau) [2016, Великобритания, США, фэнтези, драма, приключения, семейный, BD> DVD9 (Custom)] DUB + AVO + Sub Rus / Eng + Original Eng Galfimbul 80681267207.51 GB 0 0 1484506836

22:00

15-Янв-17

Зарубежные фильмы 2016-2019 (Новинки зарубежного кино) ·· Книга джунглей / The Jungle Book (Джон Фавро / Jon Favreau) [2016, Великобритания, США, фэнтези, драма, приключения, BDRip-AVC] Dub + Original + Sub (rus, eng) Galfimbul 31505654082.93 GB 0 0 1473172625

17:37

6-Сен-16

Зарубежные фильмы 2016-2019 (Новинки зарубежного кино) ·· Книга джунглей / The Jungle Book (Джон Фавро / Jon Favreau) [2016, Великобритания, США, фэнтези, драма, приключения, BDRip-AVC] Dub + Original + Sub (rus, eng) Galfimbul 43466442314.05 GB 0 0 1473172621

17:37

6-Сен-16

Зарубежные фильмы 2016-2019 (Новинки зарубежного кино) ·· Книга джунглей / The Jungle Book (Джон Фавро / Jon Favreau) [2016, Великобритания, США, фэнтези, драма, приключения, семейный, BDRip] Dub (CEE) + Original Eng + subs (Rus, Eng) Galfimbul 23450700532.18 GB 0 0 1473172461

17:34

6-Сен-16

Зарубежные фильмы до 2016 ·· Книга джунглей / The Jungle Book (Джон Фавро / Jon Favreau) [2016, Великобритания, США, фэнтези, драма, приключения, BDRip 1080p] Dub [CEE] + Sub Rus, Eng + Original Eng Galfimbul 1775296389416.53 GB 0 0 1472646002

15:20

31-Авг-16

Зарубежные фильмы 2016-2019 (Новинки зарубежного кино) ·· Книга джунглей / The Jungle Book (Джон Фавро / Jon Favreau) [2016, Великобритания, США, фэнтези, драма, приключения, семейный, Blu-Ray CEE] Лицензия Galfimbul 4278918494439.85 GB 0 0 1472543364

10:49

30-Авг-16

Зарубежные фильмы до 2016 ·· Книга джунглей / The Jungle Book (Джон Фавро / Jon Favreau) [2016, Великобритания, США, фэнтези, драма, приключения, семейный, Blu-ray disc 1080p ] [CEE] Dub + Sub Eng, Rus, Cze, Hin, Pol + Original Eng Galfimbul 4278918494439.85 GB 0 0 1472502771

23:32

29-Авг-16

Трейлеры и дополнительные материалы ·· Книга Джунглей / The Jungle Book (Джон Фавро / Jon Favreau) [2016, Драма | Приключени, BDRip 720p] дополнительные материалы Galfimbul 15106935261.41 GB 0 0 1472471429

14:50

29-Авг-16

Зарубежные фильмы до 2016 ·· Книга джунглей / The Jungle Book (Джон Фавро / Jon Favreau) [2016, Великобритания, США, фэнтези, драма, приключения, семейный, BDRip 720p] Dub + Sub Rus, Eng + Original Eng Galfimbul 82161587517.65 GB 0 0 1472322310

21:25

27-Авг-16

Зарубежные фильмы 2016-2019 (Новинки зарубежного кино) ·· Книга джунглей / The Jungle Book (Джон Фавро) [2016, фэнтези, драма, приключения, семейный, BDRip 1080p] Лицензия Galfimbul 1775296389416.53 GB 0 0 1472303797

16:16

27-Авг-16

Зарубежные фильмы 2016-2019 (Новинки зарубежного кино) ·· Книга джунглей / The Jungle Book (Джон Фавро) [2016, фэнтези, драма, приключения, семейный, BDRip 720p] Лицензия Galfimbul 95661349548.91 GB 0 0 1472298339

14:45

27-Авг-16

Зарубежные фильмы до 2016 ·· Книга джунглей / The Jungle Book (Джон Фавро / Jon Favreau) [2016, Великобритания, США, фэнтези, драма, приключения, семейный, BDRip 720p] Dub (iTunes) + Sub Rus, Eng + Original Eng Galfimbul 80135084797.46 GB 0 0 1471727952

00:19

21-Авг-16

Зарубежные фильмы до 2016 ·· Книга джунглей / The Jungle Book (Джон Фавро / Jon Favreau) [2016, Великобритания, США, фэнтези, драма, приключения, семейный, BDRip 1080p] Dub (iTunes) + Ukr + Original Eng + Sub (Rus, Eng) Galfimbul 1670781549115.56 GB 0 0 1471727943

00:19

21-Авг-16

Еще никто не оставлял запись к записи скачать торрент Книга джунглей The Jungle Book . Будь первым!

!Обратная связь