Скачать через торрент Книга джунглей The Jungle Book Фильм бесплатно в хорошем качестве torrent

Скачивайте на UnionPeer.org фильмы через торрент без регистрации. Новинки кино в хорошем качестве через торрент. На UnionPeer.org можно скачать через торрент фильмы 2014 и 2015 годов. Самые новые фильмы.

Скачать торрент Книга джунглей The Jungle Book бесплатно через .torrent фильм мультфильм сериал

Статистика раздачи
Размер:  52.05 GB   |    Зарегистрирован:  7 месяцев   |    .torrent скачан:  9 раз   |   
Раздают:  1  
 

Скачать Книга джунглей / The Jungle Book (2016) UHD BDRemux 2160p от селезень | 4K | HDR | Лицензия через torrent

 
Sprinthost
загрузка...
 
Автор Сообщение

Galfimbul ghost

avatar Galfimbul ghost


Книга джунглей /The Jungle Book

Год выхода: 2016
Жанр: Фэнтези, драма, приключения, ремейк
Режиссер: Джон Фавро
В ролях: Нил Сети, Билл Мюррей, Бен Кингсли, Идрис Эльба, Лупита Нионго, Скарлетт Йоханссон, Джанкарло Эспозито, Кристофер Уокен, Гарри Шендлинг, Брайтон Роуз, Эмджей Энтони, Макс Фавро, Хлоя Хехтер, Эшер Блинкофф, Нокс Ганьон, Саша Шрайбер, Кай Шрайбер, Джон Фавро, Сэм Рэйми, Расселл Питерс



О фильме: Эта удивительная история повествует о маленьком мальчике, которого вырастили в глухом лесу говорящие животные. Он воспитывался в волчьей стае и постигал законы джунглей под присмотром мудрой пантеры Багиры. Однако, всевозрастающая угроза со стороны тигра Шерхана вынуждает его покинуть родной дом и отправиться в ближайшую деревню к людям. Ему предстоит пройти длинный путь к познанию своего прошлого, преисполненный опасными приключениями и захватывающими встречами с медведем Балу, питоном Каа, обезьяним королем Луи и другими лесными жителями.

Страна: США
Студия: Walt Disney Pictures
Продолжительность: 01:45:54
Перевод: Дублированный | Лицензия

Качество: BDRemux 2160p
Видео: 3840x2160 at 23.976 fps, MPEG-H HEVC HDR Video, 63800 kbps avg
Аудио #01: 48 kHz, AC3, 5.1, 640 Kbps | Лицензия | RUS |
Аудио #02: 48 kHz, TrueHD, 7.1, 5185 Kbps | Оригинал | ENG |
Аудио #03: 48 kHz, AC3, 5.1, 640 Kbps | Оригинал | ENG |
Субтитры: Русские (Forced, full), английские

General
Unique ID : 256707912171018785797069943995952562221 (0xC120253F8FE025CEE3FC4747ADE0802D)
Complete name : E:Video111The.Jungle.Book.2016.BDREMUX.2160pHDR.seleZen.mkv
Format : Matroska
Format version : Version 4
File size : 52.0 GiB
Duration : 1 h 45 min
Overall bit rate mode : Variable
Overall bit rate : 70.4 Mb/s
Movie name : The Jungle Book 2016 from селезень
Encoded date : UTC 2020-01-14 17:39:32
Writing application : mkvmerge v40.0.0 ('Old Town Road + Pony') 64-bit
Writing library : libebml v1.3.9 + libmatroska v1.5.2

Video
ID : 1
Format : HEVC
Format/Info : High Efficiency Video Coding
Format profile : Main 10@L5.1@High
HDR format : SMPTE ST 2086, HDR10 compatible
Codec ID : V_MPEGH/ISO/HEVC
Duration : 1 h 45 min
Bit rate : 63.8 Mb/s
Width : 3 840 pixels
Height : 2 160 pixels
Display aspect ratio : 16:9
Frame rate mode : Constant
Frame rate : 23.976 (24000/1001) FPS
Color space : YUV
Chroma subsampling : 4:2:0 (Type 2)
Bit depth : 10 bits
Bits/(Pixel*Frame) : 0.321
Stream size : 47.2 GiB (91%)
Language : English
Default : Yes
Forced : No
Color range : Limited
Color primaries : BT.2020
Transfer characteristics : PQ
Matrix coefficients : BT.2020 non-constant
Mastering display color pri : Display P3
Mastering display luminance : min: 0.0010 cd/m2, max: 4000 cd/m2
Maximum Content Light Level : 998 cd/m2
Maximum Frame-Average Light : 236 cd/m2

Audio #1
ID : 2
Format : AC-3
Format/Info : Audio Coding 3
Commercial name : Dolby Digital
Codec ID : A_AC3
Duration : 1 h 45 min
Bit rate mode : Constant
Bit rate : 640 kb/s
Channel(s) : 6 channels
Channel layout : L R C LFE Ls Rs
Sampling rate : 48.0 kHz
Frame rate : 31.250 FPS (1536 SPF)
Compression mode : Lossy
Stream size : 485 MiB (1%)
Title : Dub
Language : Russian
Service kind : Complete Main
Default : Yes
Forced : Yes

Audio #2
ID : 3
Format : MLP FBA 16-ch
Format/Info : Meridian Lossless Packing FBA with 16-channel presentation
Commercial name : Dolby TrueHD with Dolby Atmos
Codec ID : A_TRUEHD
Duration : 1 h 45 min
Bit rate mode : Variable
Bit rate : 5 185 kb/s
Maximum bit rate : 7 926 kb/s
Channel(s) : 8 channels
Channel layout : L R C LFE Ls Rs Lb Rb
Sampling rate : 48.0 kHz
Frame rate : 1 200.000 FPS (40 SPF)
Compression mode : Lossless
Stream size : 3.84 GiB (7%)
Title : Original
Language : English
Default : No
Forced : No
Number of dynamic objects : 13
Bed channel count : 1 channel
Bed channel configuration : LFE

Audio #3
ID : 4
Format : AC-3
Format/Info : Audio Coding 3
Commercial name : Dolby Digital
Codec ID : A_AC3
Duration : 1 h 45 min
Bit rate mode : Constant
Bit rate : 640 kb/s
Channel(s) : 6 channels
Channel layout : L R C LFE Ls Rs
Sampling rate : 48.0 kHz
Frame rate : 31.250 FPS (1536 SPF)
Compression mode : Lossy
Stream size : 485 MiB (1%)
Language : English
Service kind : Complete Main
Default : No
Forced : No

Text #1
ID : 5
Format : UTF-8
Codec ID : S_TEXT/UTF8
Codec ID/Info : UTF-8 Plain Text
Duration : 9 min 45 s
Bit rate : 1 b/s
Count of elements : 3
Stream size : 132 Bytes (0%)
Title : Forced
Language : Russian
Default : Yes
Forced : Yes

Text #2
ID : 6
Format : UTF-8
Codec ID : S_TEXT/UTF8
Codec ID/Info : UTF-8 Plain Text
Duration : 1 h 44 min
Bit rate : 60 b/s
Count of elements : 1107
Stream size : 46.0 KiB (0%)
Title : Full
Language : Russian
Default : No
Forced : No

Text #3
ID : 7
Format : UTF-8
Codec ID : S_TEXT/UTF8
Codec ID/Info : UTF-8 Plain Text
Duration : 1 h 44 min
Bit rate : 44 b/s
Count of elements : 1218
Stream size : 34.2 KiB (0%)
Title : Full
Language : English
Default : No
Forced : No

Text #4
ID : 8
Format : UTF-8
Codec ID : S_TEXT/UTF8
Codec ID/Info : UTF-8 Plain Text
Duration : 1 h 44 min
Bit rate : 50 b/s
Count of elements : 1410
Stream size : 38.5 KiB (0%)
Title : SDH
Language : English
Default : No
Forced : No

Menu
00:00:00.000 : en:Глава 01
00:00:48.215 : en:Глава 02
00:05:15.315 : en:Глава 03
00:09:02.459 : en:Глава 04
00:12:42.178 : en:Глава 05
00:16:34.452 : en:Глава 06
00:21:20.029 : en:Глава 07
00:27:15.133 : en:Глава 08
00:35:04.144 : en:Глава 09
00:43:21.724 : en:Глава 10
00:48:05.132 : en:Глава 11
00:53:29.248 : en:Глава 12
00:58:03.271 : en:Глава 13
01:05:46.901 : en:Глава 14
01:10:35.523 : en:Глава 15
01:17:01.325 : en:Глава 16
01:20:50.012 : en:Глава 17
01:24:46.540 : en:Глава 18
01:30:32.969 : en:Глава 19
01:35:53.206 : en:Глава 20

Источник http://BlaTor.org

Внимание! AdBlock блокирует показ скриншотов, все вопросы к разработчикам )))
Трекер:  [ 14-Янв-2020 21:00 ]

  

Скачать .torrent

Размер .torrent файла 65 KB


Размер: 52.05 GB
Хэш (hash) релиза: 4df2aefd5663b0f90a66632258a678f3daa987e9
Подписка на обновления:

Торренты, похожие на Книга джунглей The Jungle Book скачать торрент

Форум Название Автор Размер S L Добавлен
Зарубежные фильмы 2016-2019 (Новинки зарубежного кино) ·%· Книга джунглей / The Jungle Book (2016) BDRemux 1080p | D Galfimbul ghost 3608747511233.61 GB 0 0 1579291209

23:00

17-Янв-20

Зарубежные фильмы 2016-2019 (Новинки зарубежного кино) ·%· Книга джунглей / The Jungle Book (2016) UHD BDRip 2160p от селезень | 4K | HDR | Лицензия Galfimbul ghost 1539875142014.34 GB 0 0 1578666650

17:30

10-Янв-20

Зарубежные фильмы 2016-2019 (Новинки зарубежного кино) ·%· Книга джунглей / The Jungle Book (2016) BDRip-HEVC 1080p | Лицензия Galfimbul ghost 69360475866.46 GB 0 0 1553426430

14:20

24-Мар-19

Зарубежные фильмы 2016-2019 (Новинки зарубежного кино) ·%· Книга джунглей / The Jungle Book (2016) BDRip-HEVC 1080p | Лицензия Galfimbul ghost 77107430257.18 GB 0 0 1548423011

16:30

25-Янв-19

Зарубежные фильмы 2016-2019 (Новинки зарубежного кино) ·· Книга джунглей / The Jungle Book (Джон Фавро / Jon Favreau) [2016, США, Великобритания, фэнтези, приключения, семейный, BDRip] AVO (Юрий Сербин) Galfimbul ghost 15734845441.47 GB 0 0 1514709015

11:30

31-Дек-17

Зарубежные фильмы до 2016 ·· Книга джунглей / The Jungle Book (Джон Фавро / Jon Favreau) [2016, Великобритания, США, фэнтези, драма, приключения, семейный, BD> DVD5 (Custom)] DUB + Sub Rus / Eng + Original Eng Galfimbul ghost 46842327044.36 GB 0 0 1485114416

22:46

22-Янв-17

Зарубежные фильмы до 2016 ·· Книга джунглей / The Jungle Book (Джон Фавро / Jon Favreau) [2016, Великобритания, США, фэнтези, драма, приключения, семейный, BD> DVD9 (Custom)] DUB + AVO + Sub Rus / Eng + Original Eng Galfimbul ghost 80681267207.51 GB 0 0 1484506836

22:00

15-Янв-17

Зарубежные фильмы 2016-2019 (Новинки зарубежного кино) ·· Книга джунглей / The Jungle Book (Джон Фавро / Jon Favreau) [2016, Великобритания, США, фэнтези, драма, приключения, BDRip-AVC] Dub + Original + Sub (rus, eng) Galfimbul ghost 31505654082.93 GB 0 0 1473172625

17:37

6-Сен-16

Зарубежные фильмы 2016-2019 (Новинки зарубежного кино) ·· Книга джунглей / The Jungle Book (Джон Фавро / Jon Favreau) [2016, Великобритания, США, фэнтези, драма, приключения, BDRip-AVC] Dub + Original + Sub (rus, eng) Galfimbul ghost 43466442314.05 GB 0 0 1473172621

17:37

6-Сен-16

Зарубежные фильмы 2016-2019 (Новинки зарубежного кино) ·· Книга джунглей / The Jungle Book (Джон Фавро / Jon Favreau) [2016, Великобритания, США, фэнтези, драма, приключения, семейный, BDRip] Dub (CEE) + Original Eng + subs (Rus, Eng) Galfimbul ghost 23450700532.18 GB 0 0 1473172461

17:34

6-Сен-16

Зарубежные фильмы до 2016 ·· Книга джунглей / The Jungle Book (Джон Фавро / Jon Favreau) [2016, Великобритания, США, фэнтези, драма, приключения, BDRip 1080p] Dub [CEE] + Sub Rus, Eng + Original Eng Galfimbul ghost 1775296389416.53 GB 0 0 1472646002

15:20

31-Авг-16

Зарубежные фильмы 2016-2019 (Новинки зарубежного кино) ·· Книга джунглей / The Jungle Book (Джон Фавро / Jon Favreau) [2016, Великобритания, США, фэнтези, драма, приключения, семейный, Blu-Ray CEE] Лицензия Galfimbul ghost 4278918494439.85 GB 0 0 1472543364

10:49

30-Авг-16

Зарубежные фильмы до 2016 ·· Книга джунглей / The Jungle Book (Джон Фавро / Jon Favreau) [2016, Великобритания, США, фэнтези, драма, приключения, семейный, Blu-ray disc 1080p ] [CEE] Dub + Sub Eng, Rus, Cze, Hin, Pol + Original Eng Galfimbul ghost 4278918494439.85 GB 0 0 1472502771

23:32

29-Авг-16

Трейлеры и дополнительные материалы ·· Книга Джунглей / The Jungle Book (Джон Фавро / Jon Favreau) [2016, Драма | Приключени, BDRip 720p] дополнительные материалы Galfimbul ghost 15106935261.41 GB 0 0 1472471429

14:50

29-Авг-16

Зарубежные фильмы до 2016 ·· Книга джунглей / The Jungle Book (Джон Фавро / Jon Favreau) [2016, Великобритания, США, фэнтези, драма, приключения, семейный, BDRip 720p] Dub + Sub Rus, Eng + Original Eng Galfimbul ghost 82161587517.65 GB 0 0 1472322310

21:25

27-Авг-16

Зарубежные фильмы 2016-2019 (Новинки зарубежного кино) ·· Книга джунглей / The Jungle Book (Джон Фавро) [2016, фэнтези, драма, приключения, семейный, BDRip 1080p] Лицензия Galfimbul ghost 1775296389416.53 GB 0 0 1472303797

16:16

27-Авг-16

Зарубежные фильмы 2016-2019 (Новинки зарубежного кино) ·· Книга джунглей / The Jungle Book (Джон Фавро) [2016, фэнтези, драма, приключения, семейный, BDRip 720p] Лицензия Galfimbul ghost 95661349548.91 GB 0 0 1472298339

14:45

27-Авг-16

Зарубежные фильмы до 2016 ·· Книга джунглей / The Jungle Book (Джон Фавро / Jon Favreau) [2016, Великобритания, США, фэнтези, драма, приключения, семейный, BDRip 720p] Dub (iTunes) + Sub Rus, Eng + Original Eng Galfimbul ghost 80135084797.46 GB 0 0 1471727952

00:19

21-Авг-16

Зарубежные фильмы до 2016 ·· Книга джунглей / The Jungle Book (Джон Фавро / Jon Favreau) [2016, Великобритания, США, фэнтези, драма, приключения, семейный, BDRip 1080p] Dub (iTunes) + Ukr + Original Eng + Sub (Rus, Eng) Galfimbul ghost 1670781549115.56 GB 0 0 1471727943

00:19

21-Авг-16

dpd RU

Еще никто не оставлял запись к записи скачать торрент Книга джунглей The Jungle Book . Будь первым!

!Обратная связь