Скачать через торрент Волки и Овцы: Ход свиньёй Фильм бесплатно в хорошем качестве torrent

Скачивайте на UnionPeer.org фильмы через торрент без регистрации. Новинки кино в хорошем качестве через торрент. На UnionPeer.org можно скачать через торрент фильмы 2014 и 2015 годов. Самые новые фильмы.

Скачать торрент Волки и Овцы: Ход свиньёй бесплатно через .torrent фильм мультфильм сериал

Статистика раздачи
Размер:  4.6 GB   |    Зарегистрирован:  4 месяца 12 дней   |    .torrent скачан:  48 раз   |   
Раздают:  1  
 

Скачать Волки и Овцы: Ход свиньёй (2018) BDRip 1080p от OlLanDGroup | GER Transfer | iTunes через torrent

 
загрузка...
 
Автор Сообщение

Galfimbul

avatar Galfimbul


Волки и Овцы: Ход свиньёй



[b]Год выпуска:
2018
Жанр: Мультфильм, полнометражный, семейный, комедия, приключения
Выпущено: Россия, Кинокомпания CTB, Wizart Animation
Режиссер: Владимир Николаев
В ролях: Елизавета Боярская, Максим Матвеев, Галина Корнева, Антон Юрьев, Алексей Сигаев, Даниил Эльдаров

О фильме: В спокойной и размеренной жизни объединенного городка волков и овец появляются неожиданные гости — песец и маленькая овечка. Никто не ожидал, что они принесут с собой смертельную опасность, преодолеть которую можно лишь всем вместе. Ведь только сообща решаются большие проблемы и серьезные задачи — в единстве сила!



Качество: BDRip (1080p)
Видео: MPEG-4 AVC, 8410 Kбит/с, 1920x804, 23.976 кадр/с
Аудио: АС3, 6 ch, 384 Кбит/с
Размер: 4.60 ГБ
Продолжительность: 01:11:45
Язык: Русский

Озвучивание - (iTunes)
Сохранены оригинальные чаптеры как на Blu-Ray.
x264 [info]: frame I:986 Avg QP:14.55 size:293474
x264 [info]: frame P:32523 Avg QP:17.55 size: 77333
x264 [info]: frame B:74160 Avg QP:19.35 size: 25829
x264 [info]: consecutive B-frames: 7.4% 6.6% 15.7% 39.5% 10.8% 16.4% 1.0% 0.6% 0.4% 0.3% 1.2%
x264 [info]: mb I I16..4: 9.1% 51.6% 39.2%
x264 [info]: mb P I16..4: 1.8% 13.5% 5.3% P16..4: 23.9% 19.6% 10.3% 2.6% 0.4% skip:22.5%
x264 [info]: mb B I16..4: 0.4% 2.6% 0.9% B16..8: 22.7% 14.2% 2.8% direct: 4.8% skip:51.6% L0:34.8% L1:42.4% BI:22.8%
x264 [info]: 8x8 transform intra:64.6% inter:45.8%
x264 [info]: direct mvs spatial:98.0% temporal:2.0%
x264 [info]: coded y,uvDC,uvAC intra: 80.8% 80.5% 55.5% inter: 19.8% 21.3% 10.4%
x264 [info]: i16 v,h,dc,p: 31% 22% 11% 35%
x264 [info]: i8 v,h,dc,ddl,ddr,vr,hd,vl,hu: 16% 14% 12% 8% 9% 10% 9% 11% 12%
x264 [info]: i4 v,h,dc,ddl,ddr,vr,hd,vl,hu: 30% 12% 11% 5% 10% 9% 8% 7% 7%
x264 [info]: i8c dc,h,v,p: 32% 30% 22% 16%
x264 [info]: Weighted P-Frames: Y:1.5% UV:1.0%
x264 [info]: ref P L0: 64.2% 13.2% 13.9% 4.3% 3.6% 0.8% 0.0%
x264 [info]: ref B L0: 87.0% 9.8% 2.5% 0.7%
x264 [info]: ref B L1: 94.8% 5.2%
x264 [info]: kb/s:8408.39
Общее
Уникальный идентификатор : 185401018914885167191106328067270254427 (0x8B7AEFF9C2F22ED397C4FF92DA481F5B)
Полное имя : D:ЗагрузкиSheep.And.Wolves.The.Pigs.Move.2018.x264.BDRip.(1080p).OlLanDGroup.mkv
Формат : Matroska
Версия формата : Version 4 / Version 2
Размер файла : 4,60 Гбайт
Продолжительность : 1 ч. 14 м.
Общий поток : 8795 Кбит/сек
Название фильма : Волки и Овцы: Ход свиньёй.2018.Rip by: ollan
Дата кодирования : UTC 2019-07-10 23:55:02
Программа кодирования : mkvmerge v6.5.0 ('Isn't she lovely') built on Oct 20 2013 12:50:05
Библиотека кодирования : libebml v1.3.0 + libmatroska v1.4.1
Обложка : Yes
Attachments : Cover - Sheep.And.Wolves.The.Pigs.Move.png

Видео
Идентификатор : 1
Формат : AVC
Формат/Информация : Advanced Video Codec
Профиль формата : High@L4.1
Настройки формата : CABAC / 5 Ref Frames
Параметр CABAC формата : Да
Параметр ReFrames формата : 5 кадров
Идентификатор кодека : V_MPEG4/ISO/AVC
Продолжительность : 1 ч. 14 м.
Битрейт : 8410 Кбит/сек
Ширина : 1920 пикселей
Высота : 804 пикселя
Соотношение сторон : 2,40:1
Режим частоты кадров : Постоянный
Частота кадров : 23,976 (24000/1001) кадра/сек
Цветовое пространство : YUV
Субдискретизация насыщенности : 4:2:0
Битовая глубина : 8 бит
Тип развёртки : Прогрессивная
Бит/(Пиксели*Кадры) : 0.227
Размер потока : 4,31 Гбайт (94%)
Библиотека кодирования : x264 core 146 r2538 121396c
Настройки программы : cabac=1 / ref=5 / deblock=1:-3:-3 / analyse=0x3:0x133 / me=umh / subme=11 / psy=1 / psy_rd=0.95:0.05 / mixed_ref=1 / me_range=64 / chroma_me=1 / trellis=2 / 8x8dct=1 / cqm=0 / deadzone=21,11 / fast_pskip=0 / chroma_qp_offset=-3 / threads=12 / lookahead_threads=3 / sliced_threads=0 / nr=0 / decimate=0 / interlaced=0 / bluray_compat=0 / constrained_intra=0 / bframes=10 / b_pyramid=2 / b_adapt=2 / b_bias=0 / direct=3 / weightb=1 / open_gop=0 / weightp=2 / keyint=240 / keyint_min=23 / scenecut=40 / intra_refresh=0 / rc_lookahead=40 / rc=2pass / mbtree=0 / bitrate=8410 / ratetol=1.0 / qcomp=0.60 / qpmin=0 / qpmax=69 / qpstep=4 / cplxblur=20.0 / qblur=0.5 / vbv_maxrate=50000 / vbv_bufsize=62500 / nal_hrd=none / filler=0 / ip_ratio=1.40 / pb_ratio=1.30 / aq=1:1.00
Язык : English
Default : Да
Forced : Нет

Аудио
Идентификатор : 2
Формат : AC-3
Формат/Информация : Audio Coding 3
Идентификатор кодека : A_AC3
Продолжительность : 1 ч. 14 м.
Вид битрейта : Постоянный
Битрейт : 384 Кбит/сек
Каналы : 6 каналов
Расположение каналов : Front: L C R, Side: L R, LFE
Частота : 48,0 КГц
Частота кадров : 31,250 кадров/сек (1536 SPF)
Битовая глубина : 16 бит
Метод сжатия : С потерями
Размер потока : 206 Мбайт (4%)
Заголовок : iTunes
Язык : Russian
Service kind : Complete Main
Default : Да
Forced : Нет

Меню
00:00:00.000 : en:Chapter 01
00:05:11.352 : en:Chapter 02
00:12:37.131 : en:Chapter 03
00:17:46.774 : en:Chapter 04
00:25:51.258 : en:Chapter 05
00:32:43.169 : en:Chapter 06
00:37:31.207 : en:Chapter 07
00:43:51.211 : en:Chapter 08
00:49:38.600 : en:Chapter 09
00:56:49.697 : en:Chapter 10
01:00:47.393 : en:Chapter 11
01:08:55.256 : en:Chapter 12
01:14:48.692 : en:Chapter 13
Релиз от: Rip by:
Источник http://BlaTor.org

Трекер:  [ 11-Июл-2019 03:30 ]

  

Скачать .torrent

Размер .torrent файла 12 KB


Размер: 4.6 GB
Хэш (hash) релиза: caaf11b762f3ffeff88c06a539b27ef62a17acf2
Подписка на обновления:

Еще никто не оставлял запись к записи скачать торрент Волки и Овцы: Ход свиньёй . Будь первым!

!Обратная связь