Скачать через торрент Волки и Овцы: Ход свиньёй Фильм бесплатно в хорошем качестве torrent

Скачивайте на UnionPeer.org фильмы через торрент без регистрации. Новинки кино в хорошем качестве через торрент. На UnionPeer.org можно скачать через торрент фильмы 2014 и 2015 годов. Самые новые фильмы.

Скачать торрент Волки и Овцы: Ход свиньёй бесплатно через .torrent фильм мультфильм сериал

Статистика раздачи
Размер:  5.76 GB   |    Зарегистрирован:  2 месяца 4 дня   |    .torrent скачан:  31 раз   |   
Раздают:  1  
   
загрузка...
 
Автор Сообщение

Galfimbul

avatar Galfimbul


Волки и Овцы: Ход свиньёй
Продолжительность: 01:14:53

Перевод: Не требуется

Режиссер: Владимир Николаев
Роли озвучивали:



Елизавета Боярская (Бьянка), Максим Матвеев (Серый), Галина Корнева (Симона / Мами), Антон Юрьев (Зико), Алексей Сигаев (Чук), Даниил Эльдаров (Моз / Гек), Михаил Белякович (Гарк), Михаил Тихонов (Тощий), Олег Куценко (Бучо), Всеволод Кузнецов (Айк), Никита Прозоровский (Белгур), Алексей Войтюк (Хромой / Клиф)
Описание: В спокойной и размеренной жизни объединенного городка волков и овец появляются неожиданные гости — песец и маленькая овечка. Никто не ожидал, что они принесут с собой смертельную опасность, преодолеть которую можно лишь всем вместе. Ведь только сообща решаются большие проблемы и серьезные задачи — в единстве сила!
Премьера: 15 октября 2018 (24 января 2019)
Бюджет: 350 000 000 руб.
Кассовые сборы: $2 425 719



Качество: BDRip (by Ash61) (исх - BD 3D Ger)
Контейнер: MKV
Формат 3D: Half OverUnder / Вертикальная анаморфная стереопара
Порядок ракурсов: левый ракурс первый
Видео: AVC / 1920х1080p / 23,976 fps / 10 000 Kbps

Аудио:
#1 - Русский / AC3 / 48 KHz / 5.1 ch / 384 Kbps (Оригинал - iTunes)
#2 - Английский / AC3 / 48 KHz / 5.1 ch / 640 Kbps (Dubbing - BD 3D Ger)

Субтитры: (SRT)
Вшитые (softsub):
#1 - Русские Форсированные (одна надпись) (включены по умолчанию)

Внешние (UTF-8):
#1 - Русские Форсированные (одна надпись) (включены по умолчанию)
General
Unique ID : 183017776865325120562773324629736642652 (0x89AFF1121280F86C87F857726D0B585C)
Complete name : J:VolkiIOvcy2(2018)3D-hOU(Ash61)iTunesVolkiIOvcy2(2018)3D-hOU(Ash61)iTunes.mkv
Format : Matroska
Format version : Version 2
File size : 5.76 GiB
Duration : 1h 14mn
Overall bit rate : 11.0 Mbps
Movie name : Волки и Овцы: Ход свиньёй / Sheep and Wolves: The Pig's Move (Sheep and Wolves: Pig Deal / Sheep & Wolves 2) / V?llig von der Wolle: Schwein gehabt! (2018) in 3D
Encoded date : UTC 2019-07-12 13:33:41
Writing application : mkvmerge v5.8.0 ('No Sleep / Pillow') built on Sep 2 2012 15:37:04
Writing library : libebml v1.2.3 + libmatroska v1.3.0

Video
ID : 1
Format : AVC
Format/Info : Advanced Video Codec
Format profile : High@L4.1
Format settings, CABAC : Yes
Format settings, ReFrames : 4 frames
Codec ID : V_MPEG4/ISO/AVC
Duration : 1h 14mn
Bit rate : 10 000 Kbps
Width : 1 920 pixels
Height : 1 080 pixels
Display aspect ratio : 16:9
Frame rate mode : Constant
Frame rate : 23.976 (24000/1001) fps
Color space : YUV
Chroma subsampling : 4:2:0
Bit depth : 8 bits
Scan type : Progressive
Bits/(Pixel*Frame) : 0.201
Stream size : 5.11 GiB (89%)
Title : BDRip by Ash61 (исх - BD 3D Ger)
Writing library : x264 core 146 r2538 121396c
Encoding settings : cabac=1 / ref=4 / deblock=1:-3:-3 / analyse=0x3:0x113 / me=umh / subme=10 / psy=1 / psy_rd=1.00:0.00 / mixed_ref=1 / me_range=32 / chroma_me=1 / trellis=2 / 8x8dct=1 / cqm=0 / deadzone=21,11 / fast_pskip=0 / chroma_qp_offset=-2 / threads=12 / lookahead_threads=2 / sliced_threads=0 / nr=0 / decimate=0 / interlaced=0 / bluray_compat=0 / constrained_intra=0 / bframes=8 / b_pyramid=2 / b_adapt=2 / b_bias=0 / direct=3 / weightb=1 / open_gop=0 / weightp=2 / keyint=250 / keyint_min=23 / scenecut=40 / intra_refresh=0 / rc_lookahead=60 / rc=2pass / mbtree=0 / bitrate=10000 / ratetol=1.0 / qcomp=0.70 / qpmin=0 / qpmax=69 / qpstep=4 / cplxblur=20.0 / qblur=0.5 / vbv_maxrate=40000 / vbv_bufsize=30000 / nal_hrd=none / filler=0 / frame-packing=4 / ip_ratio=1.40 / pb_ratio=1.30 / aq=1:0.70
Language : English
Default : Yes
Forced : No

Audio #1
ID : 2
Format : AC-3
Format/Info : Audio Coding 3
Mode extension : CM (complete main)
Format settings, Endianness : Big
Codec ID : A_AC3
Duration : 1h 14mn
Bit rate mode : Constant
Bit rate : 384 Kbps
Channel(s) : 6 channels
Channel positions : Front: L C R, Side: L R, LFE
Sampling rate : 48.0 KHz
Frame rate : 31.250 fps (1536 spf)
Compression mode : Lossy
Stream size : 206 MiB (3%)
Title : Оригинал (iTunes)
Language : Russian
Default : Yes
Forced : No

Audio #2
ID : 3
Format : AC-3
Format/Info : Audio Coding 3
Mode extension : CM (complete main)
Format settings, Endianness : Big
Codec ID : A_AC3
Duration : 1h 14mn
Bit rate mode : Constant
Bit rate : 640 Kbps
Channel(s) : 6 channels
Channel positions : Front: L C R, Side: L R, LFE
Sampling rate : 48.0 KHz
Frame rate : 31.250 fps (1536 spf)
Compression mode : Lossy
Stream size : 343 MiB (6%)
Title : Dubbing
Language : English
Default : No
Forced : No

Text
ID : 4
Format : UTF-8
Codec ID : S_TEXT/UTF8
Codec ID/Info : UTF-8 Plain Text
Title : Форсированные (одна надпись)
Language : Russian
Default : Yes
Forced : No

Menu
00:00:00.000 : :1
00:05:11.351 : :2
00:12:37.130 : :3
00:17:46.773 : :4
00:25:51.258 : :5
00:32:43.169 : :6
00:37:31.206 : :7
00:43:51.210 : :8
00:49:38.599 : :9
00:56:49.697 : :10
01:00:47.393 : :11
01:08:55.256 : :12
Каталог фильмов, выходивших в 3Д, со ссылками (вер. 10.07.2019)
О форматах и методах просмотра 3D


Источник http://BlaTor.org

Трекер:  [ 12-Июл-2019 18:10 ]

  

Скачать .torrent

Размер .torrent файла 29 KB


Размер: 5.76 GB
Хэш (hash) релиза: 60bd756f208d85f20673f81696334272532a2c32
Подписка на обновления:

Еще никто не оставлял запись к записи скачать торрент Волки и Овцы: Ход свиньёй . Будь первым!

!Обратная связь