Скачать через торрент Волки и Овцы: Ход свиньёй Фильм бесплатно в хорошем качестве torrent

Скачивайте на UnionPeer.org фильмы через торрент без регистрации. Новинки кино в хорошем качестве через торрент. На UnionPeer.org можно скачать через торрент фильмы 2014 и 2015 годов. Самые новые фильмы.

Скачать торрент Волки и Овцы: Ход свиньёй бесплатно через .torrent фильм мультфильм сериал

Статистика раздачи
Размер:  2.32 GB   |    Зарегистрирован:  2 месяца 11 дней   |    .torrent скачан:  37 раз   |   
Раздают:  1  
   
загрузка...
 
Автор Сообщение

Galfimbul

avatar Galfimbul


Волки и Овцы: Ход свиньёй



[b]Год выпуска:
2018
Жанр: Мультфильм, полнометражный, семейный, комедия, приключения
Выпущено: Россия, Кинокомпания CTB, Wizart Animation
Режиссер: Владимир Николаев
В ролях: Елизавета Боярская, Максим Матвеев, Галина Корнева, Антон Юрьев, Алексей Сигаев, Даниил Эльдаров

О фильме: В спокойной и размеренной жизни объединенного городка волков и овец появляются неожиданные гости — песец и маленькая овечка. Никто не ожидал, что они принесут с собой смертельную опасность, преодолеть которую можно лишь всем вместе. Ведь только сообща решаются большие проблемы и серьезные задачи — в единстве сила!


Качество: BDRip (720p)
Видео: MPEG-4 AVC, 4052 Kбит/с, 1280x536, 23.976 кадр/с
Аудио: АС3, 6 ch, 384 Кбит/с
Размер: 2.32 ГБ
Продолжительность: 01:11:45
Язык: Русский

Озвучивание - (iTunes)
Сохранены оригинальные чаптеры как на Blu-Ray.
x264 [info]: frame I:1010 Avg QP:15.09 size:158192
x264 [info]: frame P:30430 Avg QP:18.29 size: 38809
x264 [info]: frame B:76229 Avg QP:20.20 size: 12247
x264 [info]: consecutive B-frames: 5.7% 5.4% 14.4% 42.6% 11.7% 12.8% 1.2% 3.6% 1.1% 0.3% 1.2%
x264 [info]: mb I I16..4: 6.1% 54.8% 39.2%
x264 [info]: mb P I16..4: 1.0% 10.8% 3.5% P16..4: 22.8% 20.3% 13.1% 3.9% 0.8% skip:23.8%
x264 [info]: mb B I16..4: 0.1% 1.7% 0.5% B16..8: 21.7% 15.2% 4.0% direct: 4.5% skip:52.4% L0:35.0% L1:41.2% BI:23.8%
x264 [info]: 8x8 transform intra:69.1% inter:45.8%
x264 [info]: direct mvs spatial:97.3% temporal:2.7%
x264 [info]: coded y,uvDC,uvAC intra: 85.5% 84.6% 65.8% inter: 20.1% 19.4% 11.1%
x264 [info]: i16 v,h,dc,p: 34% 20% 8% 39%
x264 [info]: i8 v,h,dc,ddl,ddr,vr,hd,vl,hu: 14% 12% 9% 8% 10% 11% 11% 11% 14%
x264 [info]: i4 v,h,dc,ddl,ddr,vr,hd,vl,hu: 14% 11% 8% 8% 14% 12% 12% 9% 12%
x264 [info]: i8c dc,h,v,p: 35% 28% 18% 18%
x264 [info]: Weighted P-Frames: Y:1.7% UV:1.1%
x264 [info]: ref P L0: 58.4% 13.5% 12.0% 4.6% 3.1% 2.6% 1.9% 1.3% 1.1% 1.2% 0.3% 0.0%
x264 [info]: ref B L0: 82.0% 8.3% 4.2% 1.7% 1.4% 0.9% 0.8% 0.4% 0.2%
x264 [info]: ref B L1: 93.5% 6.5%
x264 [info]: kb/s:4051.56
Общее
Уникальный идентификатор : 242857030198392176384372294121561384753 (0xB6B4900AE7CB2E3CBF4B2B138FA1E731)
Полное имя : D:ЗагрузкиSheep.And.Wolves.The.Pigs.Move.2018.x264.BDRip.(720p).OlLanDGroup.mkv
Формат : Matroska
Версия формата : Version 4 / Version 2
Размер файла : 2,32 Гбайт
Продолжительность : 1 ч. 14 м.
Общий поток : 4438 Кбит/сек
Название фильма : Волки и Овцы: Ход свиньёй.2018.Rip by: ollan
Дата кодирования : UTC 2019-07-11 08:22:00
Программа кодирования : mkvmerge v6.5.0 ('Isn't she lovely') built on Oct 20 2013 12:50:05
Библиотека кодирования : libebml v1.3.0 + libmatroska v1.4.1
Обложка : Yes
Attachments : Cover - Sheep.And.Wolves.The.Pigs.Move..png

Видео
Идентификатор : 1
Формат : AVC
Формат/Информация : Advanced Video Codec
Профиль формата : High@L4.1
Настройки формата : CABAC / 10 Ref Frames
Параметр CABAC формата : Да
Параметр ReFrames формата : 10 кадров
Идентификатор кодека : V_MPEG4/ISO/AVC
Продолжительность : 1 ч. 14 м.
Битрейт : 4052 Кбит/сек
Ширина : 1280 пикселей
Высота : 536 пикселей
Соотношение сторон : 2,40:1
Режим частоты кадров : Постоянный
Частота кадров : 23,976 (24000/1001) кадра/сек
Цветовое пространство : YUV
Субдискретизация насыщенности : 4:2:0
Битовая глубина : 8 бит
Тип развёртки : Прогрессивная
Бит/(Пиксели*Кадры) : 0.246
Размер потока : 2,07 Гбайт (89%)
Библиотека кодирования : x264 core 146 r2538 121396c
Настройки программы : cabac=1 / ref=10 / deblock=1:-3:-3 / analyse=0x3:0x133 / me=umh / subme=11 / psy=1 / psy_rd=0.95:0.05 / mixed_ref=1 / me_range=64 / chroma_me=1 / trellis=2 / 8x8dct=1 / cqm=0 / deadzone=21,11 / fast_pskip=0 / chroma_qp_offset=-3 / threads=12 / lookahead_threads=3 / sliced_threads=0 / nr=0 / decimate=0 / interlaced=0 / bluray_compat=0 / constrained_intra=0 / bframes=10 / b_pyramid=2 / b_adapt=2 / b_bias=0 / direct=3 / weightb=1 / open_gop=0 / weightp=2 / keyint=240 / keyint_min=23 / scenecut=40 / intra_refresh=0 / rc_lookahead=40 / rc=2pass / mbtree=0 / bitrate=4052 / ratetol=1.0 / qcomp=0.60 / qpmin=0 / qpmax=69 / qpstep=4 / cplxblur=20.0 / qblur=0.5 / vbv_maxrate=50000 / vbv_bufsize=62500 / nal_hrd=none / filler=0 / ip_ratio=1.40 / pb_ratio=1.30 / aq=1:1.00
Язык : English
Default : Да
Forced : Нет

Аудио
Идентификатор : 2
Формат : AC-3
Формат/Информация : Audio Coding 3
Идентификатор кодека : A_AC3
Продолжительность : 1 ч. 14 м.
Вид битрейта : Постоянный
Битрейт : 384 Кбит/сек
Каналы : 6 каналов
Расположение каналов : Front: L C R, Side: L R, LFE
Частота : 48,0 КГц
Частота кадров : 31,250 кадров/сек (1536 SPF)
Битовая глубина : 16 бит
Метод сжатия : С потерями
Размер потока : 206 Мбайт (9%)
Заголовок : iTunes
Язык : Russian
Service kind : Complete Main
Default : Да
Forced : Нет

Меню
00:00:00.000 : en:Chapter 01
00:05:11.352 : en:Chapter 02
00:12:37.131 : en:Chapter 03
00:17:46.774 : en:Chapter 04
00:25:51.258 : en:Chapter 05
00:32:43.169 : en:Chapter 06
00:37:31.207 : en:Chapter 07
00:43:51.211 : en:Chapter 08
00:49:38.600 : en:Chapter 09
00:56:49.697 : en:Chapter 10
01:00:47.393 : en:Chapter 11
01:08:55.256 : en:Chapter 12
01:14:48.692 : en:Chapter 13
Релиз от: Сборка:
Источник http://BlaTor.org

Трекер:  [ 11-Июл-2019 21:10 ]

  

Скачать .torrent

Размер .torrent файла 12 KB


Размер: 2.32 GB
Хэш (hash) релиза: 29c9ecbda7a52fb0b7a7a601e9319f525875b6e5
Подписка на обновления:

Еще никто не оставлял запись к записи скачать торрент Волки и Овцы: Ход свиньёй . Будь первым!

!Обратная связь