Скачать через торрент В этом мире я больше не чувствую себя как дома I Don't Feel at Home in This World Anymore Фильм бесплатно в хорошем качестве torrent

Скачивайте на UnionPeer.org фильмы через торрент без регистрации. Новинки кино в хорошем качестве через торрент. На UnionPeer.org можно скачать через торрент фильмы 2014 и 2015 годов. Самые новые фильмы.

Скачать торрент В этом мире я больше не чувствую себя как дома I Don't Feel at Home in This World Anymore бесплатно через .torrent фильм мультфильм сериал

Статистика раздачи
Размер:  2.27 GB   |    Зарегистрирован:  3 месяца 11 дней   |    .torrent скачан:  350 раз   |   
Раздают:  3  
 

Скачать В этом мире я больше не чувствую себя как дома / I Don't Feel at Home in This World Anymore (2017) WEBRip-AVC от ExKinoRay | P2, A через torrent

 
загрузка...
 
Автор Сообщение

Galfimbul

avatar Galfimbul


Название: В этом мире я больше не чувствую себя как дома
Оригинальное название: I Don't Feel at Home in This World Anymore
Год выхода: 2017
Жанр: триллер, драма, криминал
Режиссер: Мэйкон Блэр
В ролях: Мелани Лински, Элайджа Вуд, Дэвид Йоу, Джейн Леви, Девон Грайе, Кристин Вудс, Роберт Лонгстрит, Josie Seid, Джеб Беррье, Мэйкон Блэр

О фильме: Этот мир — сущий бардак. Люди ведут себя как хотят — мусорят, сквернословят, автомобилисты не уступают дорогу пешеходам. В дом к чувствительной и слегка депрессивной Рут залезли хулиганы. И украли бабушкины ложки. Полиция не воспринимает жалобу женщины всерьёз, тогда Рут объединяется с немного сумасшедшим соседом, чтобы поставить хулиганов на место.



Выпущено: США / Film Science, XYZ Films
Продолжительность: 01:36:37
Перевод 1: Профессиональный (двухголосый, закадровый) | Кубик в Кубе (ненормативная лексика)
Перевод 2: Авторский (одноголосый, закадровый) | Ю. Немахов (ненормативная лексика)
Перевод 3: Авторский (одноголосый, закадровый) | А. Важенин (BadBajo)

Формат: MKV
Качество: WEBRip-AVC
Видео: MPEG-4 AVC, 1024x42 (2.40:1), 23.976 fps, 1700 Kbps, 0.162 bit/pixel
Аудио 1: Russian: 48 kHz, AC3, 3/2 (L,C,R,l,r) + LFE ch, ~448 kbps avg - Кубик в Кубе
Аудио 2: Russian: 48 kHz, AC3, 3/2 (L,C,R,l,r) + LFE ch, ~384 kbps avg - Ю. Немахов
Аудио 3: Russian: 48 kHz, AC3, 3/2 (L,C,R,l,r) + LFE ch, ~448 kbps avg - А. Важенин
Аудио 4: English: 48 kHz, E-AC3, 3/2 (L,C,R,l,r) + LFE ch, ~384 kbps avg - Оригинал
Субтитры: Русские (ненормативная лексика), английские
General
Unique ID : 232900935710346862874256508961805095118 (0xAF3716AF8A620924ACF7F9769240D0CE)
Complete name : F:I.Dont.Feel.at.Home.in.This.World.Anymore.2017.3xRus.AVC.ExKinoRay.mkv
Format : Matroska
Format version : Version 2
File size : 2.27 GiB
Duration : 1 h 36 min
Overall bit rate : 3 364 kb/s
Movie name : I Dont Feel at Home in This World Anymore 2017 from ExKinoRay
Encoded date : UTC 2019-08-05 21:04:35
Writing application : mkvmerge v5.6.0 ('Kenya Kane') built on May 27 2012 16:44:04
Writing library : libebml v1.2.3 + libmatroska v1.3.0

Video
ID : 1
Format : AVC
Format/Info : Advanced Video Codec
Format profile : High@L4.1
Format settings, CABAC : Yes
Format settings, ReFrames : 11 frames
Codec ID : V_MPEG4/ISO/AVC
Duration : 1 h 36 min
Bit rate : 1 700 kb/s
Width : 1 024 pixels
Height : 428 pixels
Display aspect ratio : 2.40:1
Frame rate mode : Constant
Frame rate : 23.976 (23976/1000) FPS
Color space : YUV
Chroma subsampling : 4:2:0
Bit depth : 8 bits
Scan type : Progressive
Bits/(Pixel*Frame) : 0.162
Stream size : 1.10 GiB (49%)
Title : Enigma
Writing library : x264 core 152 r2851 ba24899
Encoding settings : cabac=1 / ref=11 / deblock=1:-2:-2 / analyse=0x3:0x113 / me=umh / subme=10 / psy=1 / psy_rd=1.05:0.10 / mixed_ref=1 / me_range=32 / chroma_me=1 / trellis=2 / 8x8dct=1 / cqm=0 / deadzone=21,11 / fast_pskip=0 / chroma_qp_offset=-3 / threads=12 / lookahead_threads=2 / sliced_threads=0 / nr=0 / decimate=0 / interlaced=0 / bluray_compat=0 / constrained_intra=0 / bframes=9 / b_pyramid=2 / b_adapt=2 / b_bias=0 / direct=3 / weightb=1 / open_gop=0 / weightp=2 / keyint=240 / keyint_min=23 / scenecut=40 / intra_refresh=0 / rc=2pass / mbtree=0 / bitrate=1700 / ratetol=1.0 / qcomp=0.60 / qpmin=0 / qpmax=51 / qpstep=4 / cplxblur=20.0 / qblur=0.5 / ip_ratio=1.40 / pb_ratio=1.30 / aq=1:1.00
Language : English
Default : Yes
Forced : No
Color range : Limited
Color primaries : BT.709
Transfer characteristics : BT.709
Matrix coefficients : BT.709

Audio #1
ID : 2
Format : AC-3
Format/Info : Audio Coding 3
Mode extension : CM (complete main)
Format settings, Endianness : Big
Codec ID : A_AC3
Duration : 1 h 36 min
Bit rate mode : Constant
Bit rate : 448 kb/s
Channel(s) : 6 channels
Channel positions : Front: L C R, Side: L R, LFE
Sampling rate : 48.0 kHz
Frame rate : 31.250 FPS (1536 spf)
Compression mode : Lossy
Stream size : 310 MiB (13%)
Title : DVO
Language : Russian
Default : Yes
Forced : No

Audio #2
ID : 3
Format : AC-3
Format/Info : Audio Coding 3
Mode extension : CM (complete main)
Format settings, Endianness : Big
Codec ID : A_AC3
Duration : 1 h 36 min
Bit rate mode : Constant
Bit rate : 384 kb/s
Channel(s) : 6 channels
Channel positions : Front: L C R, Side: L R, LFE
Sampling rate : 48.0 kHz
Frame rate : 31.250 FPS (1536 spf)
Compression mode : Lossy
Stream size : 265 MiB (11%)
Title : AVO (Nemahov)
Language : Russian
Default : No
Forced : No

Audio #3
ID : 4
Format : AC-3
Format/Info : Audio Coding 3
Mode extension : CM (complete main)
Format settings, Endianness : Big
Codec ID : A_AC3
Duration : 1 h 36 min
Bit rate mode : Constant
Bit rate : 448 kb/s
Channel(s) : 6 channels
Channel positions : Front: L C R, Side: L R, LFE
Sampling rate : 48.0 kHz
Frame rate : 31.250 FPS (1536 spf)
Compression mode : Lossy
Stream size : 310 MiB (13%)
Title : AVO (BadBajo)
Language : Russian
Default : No
Forced : No

Audio #4
ID : 5
Format : AC-3
Format/Info : Audio Coding 3
Mode extension : CM (complete main)
Format settings, Endianness : Big
Codec ID : A_AC3
Duration : 1 h 36 min
Bit rate mode : Constant
Bit rate : 384 kb/s
Channel(s) : 6 channels
Channel positions : Front: L C R, Side: L R, LFE
Sampling rate : 48.0 kHz
Frame rate : 31.250 FPS (1536 spf)
Compression mode : Lossy
Stream size : 265 MiB (11%)
Language : English
Default : No
Forced : No

Text #1
ID : 6
Format : UTF-8
Codec ID : S_TEXT/UTF8
Codec ID/Info : UTF-8 Plain Text
Title : Full (Dycall)
Language : Russian
Default : No
Forced : No

Text #2
ID : 7
Format : UTF-8
Codec ID : S_TEXT/UTF8
Codec ID/Info : UTF-8 Plain Text
Title : Full
Language : English
Default : No
Forced : No

Text #3
ID : 8
Format : UTF-8
Codec ID : S_TEXT/UTF8
Codec ID/Info : UTF-8 Plain Text
Title : SDH
Language : English
Default : No
Forced : No


Автор релиза:
Источник http://BlaTor.org

Трекер:  [ 06-Авг-2019 01:10 ]

  

Скачать .torrent

Размер .torrent файла 12 KB


Размер: 2.27 GB
Хэш (hash) релиза: 50dade76c1ca7b9a56f3c3c0139b316e6d3b9f45
Подписка на обновления:

Еще никто не оставлял запись к записи скачать торрент В этом мире я больше не чувствую себя как дома I Don't Feel at Home in This World Anymore . Будь первым!

!Обратная связь