Скачать через торрент Доктор Стрэндж Doctor Strange Фильм бесплатно в хорошем качестве torrent

Скачивайте на UnionPeer.org фильмы через торрент без регистрации. Новинки кино в хорошем качестве через торрент. На UnionPeer.org можно скачать через торрент фильмы 2014 и 2015 годов. Самые новые фильмы.

Скачать торрент Доктор Стрэндж Doctor Strange бесплатно через .torrent фильм мультфильм сериал

Статистика раздачи
Размер:  61.98 GB   |    Зарегистрирован:  4 года 4 месяца   |    .torrent скачан:  36 раз   |   
Раздают:  1  
 

Скачать Доктор Стрэндж / Doctor Strange (2016) UHD BDRemux 2160p от ExKinoRay | HDR | D, L1, A через torrent

 
 
Автор Сообщение

Galfimbul

avatar Galfimbul


Доктор Стрэндж
Doctor Strange

Доктор Стрэндж / Doctor Strange

Год выпуска: 2016
Жанр: Фантастика, фэнтези, боевик, приключения
Выпущено: США, Marvel Studios Inc., Walt Disney Studios Motion Pictures
Режиссер: Скотт Дерриксон
В ролях: Бенедикт Камбербэтч, Тильда Суинтон, Мадс Миккельсен, Чиветел Эджиофор, Рэйчел МакАдамс, Бенедикт Вонг, Майкл Стулбарг, Бенджамин Брэтт, Скотт Эдкинс, Зара Питиан
Продолжительность: 01:54:58
Перевод: Дублированный
Субтитры: Русские, английские

Описание:

Стивен Стрэндж работает нейрохирургом в районной поликлинике. В течение многих лет он успешно избавляет человеческие тела от ненужных им органов и инородных предметов, вытаскивая людей буквально с того света. В результате страшной автокатастрофы доктор получает травмы, несовместимые с его профессиональной деятельностью. Поиски исцеления приводят его в Непал к могущественному мистику. Под ее духовным наставничеством Стрэндж открывает в себе третий глаз и большой талант к издевательствам над пространственно-временным континуумом. Так начинается история Верховного мага Земли и главного защитника планеты от мистических угроз.




Файл
Контейнер: BDMV
Качество: Blu-Ray Remux (2160p)
Видео: HEVC, 49.9 Mбит/с, 3840x2160

Аудио #01: AC-3, 48.0 kHz, 6 ch, 640 kb/s, CBR (Russian) | Дублированный | BD
Аудио #02: DTS-HD MA, 48.0 kHz, 8 ch, 5 123 kb/s, VBR (Russian) Дублированный | Custom Sergesha
Аудио #03: DTS-HD MA, 48.0 kHz, 6 ch, 3 840 kb/s, VBR (Ukrainian) | Дублированный
Аудио #04: AC-3, 48.0 kHz, 6 ch, 640 kb/s, CBR (Ukrainian) | Дублированный
Аудио #05: TrueHD, 48.0 kHz, 8 ch, 4 784 kb/s, VBR (English) | Original
Аудио #06: AC-3, 48.0 kHz, 6 ch, 640 kb/s, CBR (English) | Original
Аудио #07: DTS-HD MA, 48.0 kHz, 8 ch, 5 150 kb/s, VBR (Russian) | AVO, Живов
Аудио #08: DTS-HD MA, 48.0 kHz, 8 ch, 5 138 kb/s, VBR (Russian) | AVO, Сербин
Аудио #09: AC-3, 48.0 kHz, 6 ch, 448 kb/s, CBR (Russian) | AVO, Гаврилов
Аудио #10: AC-3, 48.0 kHz, 6 ch, 448 kb/s, CBR (Russian) | VO, Солод
Аудио #11: AC-3, 48.0 kHz, 2 ch, 320 kb/s, CBR (English) | Audiodeion
 
General
Unique ID : 239446692660027354482468234597134289834 (0xB423C16B955DFB93355D3D68C044CBAA)
Complete name : Doctor.Strange.2016.UHD.BDRemux.2160p.HEVC.HDR.IVA(6xRUS.UKR.ENG).ExKinoRay.mkv
Format : Matroska
Format version : Version 4
File size : 62.0 GiB
Duration : 1 h 54 min
Overall bit rate mode : Variable
Overall bit rate : 77.2 Mb/s
Movie name : Доктор Стрэндж / Doctor Strange (2016) UHD BDRemux | HDR, 4K | IVA(RUS.UKR.ENG) | ExKinoRay
Encoded date : UTC 2019-09-28 10:55:39
Writing application : mkvmerge v37.0.0 ('Leave It') 64-bit
Writing library : libebml v1.3.9 + libmatroska v1.5.2
Cover : Yes
Attachments : cover

Video
ID : 1
Format : HEVC
Format/Info : High Efficiency Video Coding
Format profile : Main [email protected]@High
HDR format : SMPTE ST 2086, HDR10 compatible
Codec ID : V_MPEGH/ISO/HEVC
Duration : 1 h 54 min
Bit rate : 49.9 Mb/s
Width : 3 840 pixels
Height : 2 160 pixels
Display aspect ratio : 16:9
Frame rate mode : Constant
Frame rate : 23.976 (24000/1001) FPS
Color space : YUV
Chroma subsampling : 4:2:0 (Type 2)
Bit depth : 10 bits
Bits/(Pixel*Frame) : 0.251
Stream size : 40.1 GiB (65%)
Title : Doctor.Strange.2016.UHD.HEVC
Language : English
Default : Yes
Forced : No
Color range : Limited
Color primaries : BT.2020
Transfer characteristics : PQ
Matrix coefficients : BT.2020 non-constant
Mastering display color primaries : Display P3
Mastering display luminance : min: 0.0050 cd/m2, max: 4000 cd/m2
Maximum Content Light Level : 577 cd/m2
Maximum Frame-Average Light Level : 512 cd/m2

Audio #1
ID : 2
Format : AC-3
Format/Info : Audio Coding 3
Commercial name : Dolby Digital
Codec ID : A_AC3
Duration : 1 h 54 min
Bit rate mode : Constant
Bit rate : 640 kb/s
Channel(s) : 6 channels
Channel layout : L R C LFE Ls Rs
Sampling rate : 48.0 kHz
Frame rate : 31.250 FPS (1536 SPF)
Compression mode : Lossy
Delay relative to video : -29 ms
Stream size : 526 MiB (1%)
Title : Дублированный | BD
Language : Russian
Service kind : Complete Main
Default : Yes
Forced : No

Audio #2
ID : 3
Format : DTS XLL
Format/Info : Digital Theater Systems
Commercial name : DTS-HD Master Audio
Codec ID : A_DTS
Duration : 1 h 54 min
Bit rate mode : Variable
Bit rate : 5 123 kb/s
Channel(s) : 8 channels
Channel layout : C L R LFE Lb Rb Lss Rss
Sampling rate : 48.0 kHz
Frame rate : 93.750 FPS (512 SPF)
Bit depth : 24 bits
Compression mode : Lossless
Delay relative to video : -29 ms
Stream size : 4.11 GiB (7%)
Title : Дублированный | Custom
Language : Russian
Default : No
Forced : No

Audio #3
ID : 4
Format : DTS XLL
Format/Info : Digital Theater Systems
Commercial name : DTS-HD Master Audio
Codec ID : A_DTS
Duration : 1 h 54 min
Bit rate mode : Variable
Bit rate : 3 840 kb/s
Channel(s) : 6 channels
Channel layout : C L R Ls Rs LFE
Sampling rate : 48.0 kHz
Frame rate : 93.750 FPS (512 SPF)
Bit depth : 24 bits
Compression mode : Lossless
Delay relative to video : -29 ms
Stream size : 3.08 GiB (5%)
Title : Дублированный
Language : Ukrainian
Default : No
Forced : No

Audio #4
ID : 5
Format : AC-3
Format/Info : Audio Coding 3
Commercial name : Dolby Digital
Codec ID : A_AC3
Duration : 1 h 54 min
Bit rate mode : Constant
Bit rate : 640 kb/s
Channel(s) : 6 channels
Channel layout : L R C LFE Ls Rs
Sampling rate : 48.0 kHz
Frame rate : 31.250 FPS (1536 SPF)
Compression mode : Lossy
Delay relative to video : -29 ms
Stream size : 526 MiB (1%)
Title : Дублированный
Language : Ukrainian
Service kind : Complete Main
Default : No
Forced : No

Audio #5
ID : 6
Format : MLP FBA 16-ch
Format/Info : Meridian Lossless Packing FBA with 16-channel presentation
Commercial name : Dolby TrueHD with Dolby Atmos
Codec ID : A_TRUEHD
Duration : 1 h 54 min
Bit rate mode : Variable
Bit rate : 4 784 kb/s
Maximum bit rate : 7 317 kb/s
Channel(s) : 8 channels
Channel layout : L R C LFE Ls Rs Lb Rb
Sampling rate : 48.0 kHz
Frame rate : 1 200.000 FPS (40 SPF)
Compression mode : Lossless
Stream size : 3.84 GiB (6%)
Title : Original
Language : English
Default : No
Forced : No
Number of dynamic objects : 13
Bed channel count : 1 channel
Bed channel configuration : LFE

Audio #6
ID : 7
Format : AC-3
Format/Info : Audio Coding 3
Commercial name : Dolby Digital
Codec ID : A_AC3
Duration : 1 h 54 min
Bit rate mode : Constant
Bit rate : 640 kb/s
Channel(s) : 6 channels
Channel layout : L R C LFE Ls Rs
Sampling rate : 48.0 kHz
Frame rate : 31.250 FPS (1536 SPF)
Compression mode : Lossy
Stream size : 526 MiB (1%)
Title : Original
Language : English
Service kind : Complete Main
Default : No
Forced : No

Audio #7
ID : 8
Format : DTS XLL
Format/Info : Digital Theater Systems
Commercial name : DTS-HD Master Audio
Codec ID : A_DTS
Duration : 1 h 54 min
Bit rate mode : Variable
Bit rate : 5 150 kb/s
Channel(s) : 8 channels
Channel layout : C L R LFE Lb Rb Lss Rss
Sampling rate : 48.0 kHz
Frame rate : 93.750 FPS (512 SPF)
Bit depth : 24 bits
Compression mode : Lossless
Delay relative to video : -29 ms
Stream size : 4.14 GiB (7%)
Title : AVO, Живов
Language : Russian
Default : No
Forced : No

Audio #8
ID : 9
Format : DTS XLL
Format/Info : Digital Theater Systems
Commercial name : DTS-HD Master Audio
Codec ID : A_DTS
Duration : 1 h 54 min
Bit rate mode : Variable
Bit rate : 5 138 kb/s
Channel(s) : 8 channels
Channel layout : C L R LFE Lb Rb Lss Rss
Sampling rate : 48.0 kHz
Frame rate : 93.750 FPS (512 SPF)
Bit depth : 24 bits
Compression mode : Lossless
Delay relative to video : -29 ms
Stream size : 4.13 GiB (7%)
Title : AVO, Сербин
Language : Russian
Default : No
Forced : No

Audio #9
ID : 10
Format : AC-3
Format/Info : Audio Coding 3
Commercial name : Dolby Digital
Codec ID : A_AC3
Duration : 1 h 54 min
Bit rate mode : Constant
Bit rate : 448 kb/s
Channel(s) : 6 channels
Channel layout : L R C LFE Ls Rs
Sampling rate : 48.0 kHz
Frame rate : 31.250 FPS (1536 SPF)
Compression mode : Lossy
Delay relative to video : -29 ms
Stream size : 368 MiB (1%)
Title : AVO, Гаврилов
Language : Russian
Service kind : Complete Main
Default : No
Forced : No

Audio #10
ID : 11
Format : AC-3
Format/Info : Audio Coding 3
Commercial name : Dolby Digital
Codec ID : A_AC3
Duration : 1 h 54 min
Bit rate mode : Constant
Bit rate : 448 kb/s
Channel(s) : 6 channels
Channel layout : L R C LFE Ls Rs
Sampling rate : 48.0 kHz
Frame rate : 31.250 FPS (1536 SPF)
Compression mode : Lossy
Delay relative to video : -29 ms
Stream size : 368 MiB (1%)
Title : VO, Солод
Language : Russian
Service kind : Complete Main
Default : No
Forced : No

Audio #11
ID : 12
Format : AC-3
Format/Info : Audio Coding 3
Commercial name : Dolby Digital
Codec ID : A_AC3
Duration : 1 h 54 min
Bit rate mode : Constant
Bit rate : 320 kb/s
Channel(s) : 2 channels
Channel layout : L R
Sampling rate : 48.0 kHz
Frame rate : 31.250 FPS (1536 SPF)
Compression mode : Lossy
Delay relative to video : 3 ms
Stream size : 263 MiB (0%)
Title : Audiodeion
Language : English
Service kind : Complete Main
Default : No
Forced : No

Text #1
ID : 13
Format : UTF-8
Codec ID : S_TEXT/UTF8
Codec ID/Info : UTF-8 Plain Text
Duration : 1 h 35 min
Bit rate : 0 b/s
Count of elements : 8
Stream size : 263 Bytes (0%)
Title : Forced
Language : Russian
Default : Yes
Forced : Yes

Text #2
ID : 14
Format : UTF-8
Codec ID : S_TEXT/UTF8
Codec ID/Info : UTF-8 Plain Text
Duration : 1 h 52 min
Bit rate : 73 b/s
Count of elements : 1286
Stream size : 60.5 KiB (0%)
Title : Full
Language : Russian
Default : No
Forced : No

Text #3
ID : 15
Format : UTF-8
Codec ID : S_TEXT/UTF8
Codec ID/Info : UTF-8 Plain Text
Duration : 1 h 35 min
Bit rate : 0 b/s
Count of elements : 7
Stream size : 338 Bytes (0%)
Title : Forced
Language : Ukrainian
Default : No
Forced : Yes

Text #4
ID : 16
Format : UTF-8
Codec ID : S_TEXT/UTF8
Codec ID/Info : UTF-8 Plain Text
Duration : 1 h 52 min
Bit rate : 43 b/s
Count of elements : 1319
Stream size : 36.1 KiB (0%)
Title : Full
Language : English
Default : No
Forced : No

Text #5
ID : 17
Format : UTF-8
Codec ID : S_TEXT/UTF8
Codec ID/Info : UTF-8 Plain Text
Duration : 1 h 54 min
Bit rate : 49 b/s
Count of elements : 1584
Stream size : 41.3 KiB (0%)
Title : SDH
Language : English
Default : No
Forced : No

Menu
00:00:00.000 : :Глава 01
00:04:34.274 : :Глава 02
00:10:16.532 : :Глава 03
00:18:31.860 : :Глава 04
00:24:36.725 : :Глава 05
00:31:40.189 : :Глава 06
00:38:33.519 : :Глава 07
00:43:15.843 : :Глава 08
00:48:24.234 : :Глава 09
00:55:34.205 : :Глава 10
01:05:04.066 : :Глава 11
01:12:38.145 : :Глава 12
01:22:14.054 : :Глава 13
01:28:28.344 : :Глава 14
01:35:00.611 : :Глава 15
01:45:06.216 : :Глава 16
Релиз от:
Источник http://BlaTor.org

Внимание! AdBlock блокирует показ скриншотов, все вопросы к разработчикам )))
Трекер:  [ 28-Сен-2019 14:50 ]

  

Скачать .torrent

Размер .torrent файла 78 KB


Размер: 61.98 GB
Хэш (hash) релиза: 9d4354b5882b46d670bc6322620f0c9d8ba07d64
Подписка на обновления:

Торренты, похожие на Доктор Стрэндж Doctor Strange скачать торрент

Форум Название Автор Размер S L Добавлен
Зарубежные фильмы 2016-2019 (Новинки зарубежного кино) ·· Доктор Стрэндж / Doctor Strange (2016) UHD BDRip-HEVC 2160p | 4K | HDR | D, A Galfimbul 2153853041620.06 GB 0 0 1582146008

00:00

20-Фев-20

Зарубежные фильмы 2016-2019 (Новинки зарубежного кино) ·%· Доктор Стрэндж / Doctor Strange (2016) UHD BDRemux 2160p от ExKinoRay | HDR | D, A Galfimbul 7029109811565.46 GB 0 0 1569684612

18:30

28-Сен-19

Зарубежные фильмы 2016-2019 (Новинки зарубежного кино) ·%· Доктор Стрэндж / Doctor Strange (2016) WEB-DLRip-AVC | D | Open Matte Galfimbul 24544406442.29 GB 0 0 1561810822

15:20

29-Июн-19

Зарубежные фильмы 2016-2019 (Новинки зарубежного кино) ·%· Доктор Стрэндж / Doctor Strange (2016) BDRip-HEVC 720p | D Galfimbul 22056735842.05 GB 0 0 1561673411

01:10

28-Июн-19

Зарубежные фильмы 2016-2019 (Новинки зарубежного кино) ·%· Доктор Стрэндж / Doctor Strange (2016) WEB-DLRip 720p от SuperMin | D | Open Matte Galfimbul 28333138452.64 GB 0 0 1558713012

18:50

24-Май-19

Зарубежные фильмы 2016-2019 (Новинки зарубежного кино) ·%· Доктор Стрэндж / Doctor Strange (2016) BDRip-HEVC 1080p от M@kSIMus | Лицензия | IMAX Galfimbul 84855974697.9 GB 0 0 1547111423

12:10

10-Янв-19

Зарубежные фильмы 2016-2019 (Новинки зарубежного кино) ·%· Доктор Стрэндж / Doctor Strange (2016) BDRip-AVC от MediaClub | D, A Galfimbul 37737688593.51 GB 0 0 1546185033

18:50

30-Дек-18

Зарубежные фильмы до 2016 ·%· Доктор Стрэндж / Doctor Strange (Скотт Дерриксон / Scott Derrickson) [2016, США, Фантастика, фэнтези, боевик, приключения, DVD5 (сжатый)] исх. R5, Dub + Sub Rus + Original Eng Galfimbul 46776668164.36 GB 0 0 1531162955

22:02

9-Июл-18

Зарубежные фильмы 2016-2019 (Новинки зарубежного кино) ·· Доктор Стрэндж / Doctor Strange (Скотт Дерриксон / Scott Derrickson) [2016, США, фантастика, боевик, приключения, BDRip] AVO (Юрий Живов) Galfimbul 22039019522.05 GB 0 0 1527003010

18:30

22-Май-18

Зарубежные фильмы до 2016 ·· Доктор Стрэндж / Doctor Strange (Скотт Дерриксон / Scott Derrickson) [2016, США, Фантастика, фэнтези, боевик, приключения, DVD9] R5 Dub + Sub Rus + Original Eng Galfimbul 68324249606.36 GB 0 0 1524751326

17:02

26-Апр-18

Зарубежные фильмы 2016-2019 (Новинки зарубежного кино) ·· Доктор Стрэндж / Doctor Strange (Скотт Дерриксон / Scott Derrickson) [2016, США, фантастика, фэнтези, боевик, приключения, BDRip] AVO (Сербин) Galfimbul 15676293121.46 GB 0 0 1508079679

18:01

15-Окт-17

3D Фильмы, кино ·· Доктор Стрэндж / Doctor Strange 3D (Скотт Дерриксон / Scott Derrickson) [2016, фантастика, фэнтези, боевик, приключения, BDRip] [IMAX Edition] Half SideBySide / Горизонтальная анаморфная стереопара Galfimbul 102815348969.58 GB 1 1 1504819890

00:31

8-Сен-17

Зарубежные фильмы до 2016 ·· Доктор Стрэндж / Doctor Strange (Скотт Дерриксон / Scott Derrickson) [2016, США, фантастика, фэнтези, боевик, приключения, BDRemux>DVD9 (Custom)] Dub + Sub (Rus, Eng) + Original Eng Galfimbul 83813580807.81 GB 0 0 1488648779

20:32

4-Мар-17

Трейлеры и дополнительные материалы ·· Доктор Стрэндж / Doctor Strange (Скотт Дерриксон) [2016, Фантастика | Боевик | Приключения, BDRip 720p] дополнительные материалы Galfimbul 28467301752.65 GB 0 0 1488404838

00:47

2-Мар-17

Зарубежные фильмы до 2016 ·· Доктор Стрэндж / Doctor Strange (Скотт Дерриксон / Scott Derrickson) [2016, США, фантастика, фэнтези, боевик, приключения, BDRip 1080p] Dub (BD EUR) + Sub Rus, Eng + Original Eng Galfimbul 1776521253816.55 GB 0 0 1488327526

03:18

1-Мар-17

Зарубежные фильмы 2016-2019 (Новинки зарубежного кино) ·· Доктор Стрэндж / Doctor Strange (2016) Blu-Ray EUR 1080p | Лицензия Galfimbul 4712327557343.89 GB 0 0 1488312700

23:11

28-Фев-17

Зарубежные фильмы 2016-2019 (Новинки зарубежного кино) ·· Доктор Стрэндж / Doctor Strange (Скотт Дерриксон / Scott Derrickson) [2016, США, фантастика, фэнтези, боевик, BDRip-AVC] Dub + Original + Sub (rus, eng) Galfimbul 31353994272.92 GB 0 0 1488016576

12:56

25-Фев-17

Зарубежные фильмы 2016-2019 (Новинки зарубежного кино) ·· Доктор Стрэндж / Doctor Strange (Скотт Дерриксон / Scott Derrickson) [2016, США, фантастика, фэнтези, боевик, приключения, BDRip-AVC] [IMAX Edition] Dub (iTunes) + Sub Rus, Eng + Original Eng Galfimbul 38423024493.58 GB 0 0 1488016549

12:55

25-Фев-17

Зарубежные фильмы 2016-2019 (Новинки зарубежного кино) ·· Доктор Стрэндж / Doctor Strange (Скотт Дерриксон / Scott Derrickson) [2016, США, фантастика, фэнтези, боевик, приключения, BDRip-AVC] [IMAX Edition] Dub (iTunes) + Sub Rus, Eng + Original Eng Galfimbul 20844164431.94 GB 0 0 1488016543

12:55

25-Фев-17

Еще никто не оставлял запись к записи скачать торрент Доктор Стрэндж Doctor Strange . Будь первым!

!Обратная связь