Скачать через торрент Али, рули! Stuber Фильм бесплатно в хорошем качестве torrent

Скачивайте на UnionPeer.org фильмы через торрент без регистрации. Новинки кино в хорошем качестве через торрент. На UnionPeer.org можно скачать через торрент фильмы 2014 и 2015 годов. Самые новые фильмы.

Скачать торрент Али, рули! Stuber бесплатно через .torrent фильм мультфильм сериал

Статистика раздачи
Размер:  746 MB   |    Зарегистрирован:  2 месяца 5 дней   |    .torrent скачан:  40 раз   |   
Раздают:  1  
 

Скачать Али, рули! / Stuber (2019) HDRip-AVC от ExKinoRay | iTunes через torrent

 
загрузка...
 
Автор Сообщение

Galfimbul

avatar Galfimbul


Название: Али, рули!
Оригинальное название: Stuber
Год выхода: 2019
Жанр: Боевик, триллер, комедия, криминал
Режиссер: Майкл Даус
В ролях: Кумэйл Нанджиани, Дэйв Батиста, Ико Ювайс, Мира Сорвино, Кристин Хорн, Бетти Гилпин, Натали Моралес, Джошуа Майкел, Скотт Лоуренс, Амин Джозеф, Дженнифер Райкер, Ганс Марреро, Патриция Френч, Джон Геттье, Фернандо Мартинес, Мика Шэйн Боллинджер

О фильме:
Главный герой — простой парень, который работает водителем в такси-приложении Uber. Однажды он берет пассажира по имени Стю. Тот оказался полицейским, ведущим охоту на серийного убийцу. Таксист не мог и представить, что поездка выльется в непростое испытание, в ходе которого нужно найти способ сохранять самообладание и сделать так, чтобы поездка была действительно на пять звезд!



Страна: США
Студия: 20th Century Fox Film Corporation
Продолжительность: 01:33:24
Перевод: Дублированный | iTunes

Файл
Формат: MKV
Качество: HDRip-AVC
Видео: MPEG-4 AVC, 784x328, - 1038 Кбит/с
Аудио: AAC-HE, 2 ch, - 76 Кбит/с
Субтитры: Русские (Forced, full), английские
Общее
Уникальный идентификатор : 184778855992423362543498340005489887708 (0x8B031CF9A984720B6AE2D85CDEF349DC)
Полное имя : D:MOVIESStuber.2019.HDRip.AVC.ExKinoRay.mkv
Формат : Matroska
Версия формата : Version 4 / Version 2
Размер файла : 746 Мбайт
Продолжительность : 1 ч. 33 м.
Общий поток : 1116 Кбит/сек
Дата кодирования : UTC 2019-10-10 04:59:15
Программа кодирования : mkvmerge v35.0.0 ('All The Love In The World') 64-bit
Библиотека кодирования : libebml v1.3.9 + libmatroska v1.5.2

Видео
Идентификатор : 1
Формат : AVC
Формат/Информация : Advanced Video Codec
Профиль формата : High@L4.1
Параметр CABAC формата : Да
Параметр RefFrames формата : 12 кадров
Идентификатор кодека : V_MPEG4/ISO/AVC
Продолжительность : 1 ч. 33 м.
Битрейт : 1038 Кбит/сек
Ширина : 784 пикселя
Высота : 328 пикселей
Соотношение сторон : 2,40:1
Режим частоты кадров : Постоянный
Частота кадров : 23,976 (24000/1001) кадра/сек
Цветовое пространство : YUV
Субдискретизация насыщенности : 4:2:0
Битовая глубина : 8 бит
Тип развёртки : Прогрессивная
Бит/(Пиксели*Кадры) : 0.168
Размер потока : 693 Мбайт (93%)
Библиотека кодирования : x264 core 152 r2851 ba24899
Настройки программы : cabac=1 / ref=12 / deblock=1:-3:-3 / analyse=0x3:0x133 / me=umh / subme=11 / psy=1 / psy_rd=1.00:0.09 / mixed_ref=1 / me_range=32 / chroma_me=1 / trellis=2 / 8x8dct=1 / cqm=0 / deadzone=21,11 / fast_pskip=0 / chroma_qp_offset=-3 / threads=6 / lookahead_threads=1 / sliced_threads=0 / nr=0 / decimate=0 / interlaced=0 / bluray_compat=0 / constrained_intra=0 / bframes=12 / b_pyramid=2 / b_adapt=2 / b_bias=0 / direct=3 / weightb=1 / open_gop=0 / weightp=2 / keyint=240 / keyint_min=23 / scenecut=40 / intra_refresh=0 / rc=2pass / mbtree=0 / bitrate=1038 / ratetol=1.0 / qcomp=0.60 / qpmin=0 / qpmax=69 / qpstep=4 / cplxblur=20.0 / qblur=0.5 / ip_ratio=1.40 / pb_ratio=1.30 / aq=1:1.00
Default : Да
Forced : Нет

Аудио
Идентификатор : 2
Формат : AAC
Формат/Информация : Advanced Audio Codec
Профиль формата : HE-AAC / LC
Идентификатор кодека : A_AAC
Продолжительность : 1 ч. 33 м.
Битрейт : 76,0 Кбит/сек
Каналы : 2 канала
Расположение каналов : Front: L R
Частота : 48,0 КГц / 24,0 КГц
Частота кадров : 23,438 кадра/сек (1024 SPF)
Метод сжатия : С потерями
Задержка видео : 31 мс.
Размер потока : 50,8 Мбайт (7%)
Default : Да
Forced : Нет

Текст #1
Идентификатор : 3
Формат : UTF-8
Идентификатор кодека : S_TEXT/UTF8
Идентификатор кодека/Информация : UTF-8 Plain Text
Продолжительность : 1 ч. 27 м.
Битрейт : 1 бит/сек
ElementCount : 24
Размер потока : 876 байт (0%)
Заголовок : Forced
Язык : Russian
Default : Да
Forced : Да

Текст #2
Идентификатор : 4
Формат : UTF-8
Идентификатор кодека : S_TEXT/UTF8
Идентификатор кодека/Информация : UTF-8 Plain Text
Продолжительность : 1 ч. 32 м.
Битрейт : 114 бит/сек
ElementCount : 1819
Размер потока : 77,4 Кбайт (0%)
Заголовок : Full
Язык : Russian
Default : Нет
Forced : Нет

Текст #3
Идентификатор : 5
Формат : UTF-8
Идентификатор кодека : S_TEXT/UTF8
Идентификатор кодека/Информация : UTF-8 Plain Text
Продолжительность : 1 ч. 26 м.
Битрейт : 83 бит/сек
ElementCount : 1795
Размер потока : 52,9 Кбайт (0%)
Заголовок : Full
Язык : English
Default : Нет
Forced : Нет

Меню
00:00:00.000 : en:Chapter 01
00:05:52.435 : en:Chapter 02
00:09:57.222 : en:Chapter 03
00:14:14.854 : en:Chapter 04
00:17:30.675 : en:Chapter 05
00:19:46.310 : en:Chapter 06
00:22:40.276 : en:Chapter 07
00:27:33.402 : en:Chapter 08
00:31:30.889 : en:Chapter 09
00:33:19.247 : en:Chapter 10
00:35:39.888 : en:Chapter 11
00:40:13.036 : en:Chapter 12
00:45:05.202 : en:Chapter 13
00:49:10.114 : en:Chapter 14
00:52:36.987 : en:Chapter 15
00:56:46.111 : en:Chapter 16
01:01:54.252 : en:Chapter 17
01:05:43.648 : en:Chapter 18
01:08:37.196 : en:Chapter 19
01:13:31.157 : en:Chapter 20
01:16:44.517 : en:Chapter 21
01:19:07.534 : en:Chapter 22
01:23:54.780 : en:Chapter 23
01:27:49.598 : en:Chapter 24
Источник http://BlaTor.org

Трекер:  [ 10-Окт-2019 08:20 ]

  

Скачать .torrent

Размер .torrent файла 15 KB


Размер: 746 MB
Хэш (hash) релиза: 2f9b261be7d72ee47bcd3c9555ba544ab330c1e0
Подписка на обновления:

Торренты, похожие на Али, рули! Stuber скачать торрент

Форум Название Автор Размер S L Добавлен
Зарубежные фильмы 2016-2018 (Новинки зарубежного кино) ·%· Али, рули! / Stuber (2019) BDRip 1080p от Талямбы | 60 fps | iTunes Galfimbul 99042800799.22 GB 0 0 1574107219

23:00

18-Ноя-19

Зарубежные фильмы 2016-2018 (Новинки зарубежного кино) ·%· Али, рули! / Stuber (2019) BDRip-AVC от HELLYWOOD | iTunes Galfimbul 23002166952.14 GB 0 0 1572403222

05:40

30-Окт-19

Зарубежные фильмы 2016-2018 (Новинки зарубежного кино) ·%· Али, рули! / Stuber (2019) BDRip-HEVC 1080p | iTunes Galfimbul 36191350603.37 GB 0 0 1571859619

22:40

23-Окт-19

Зарубежные фильмы 2016-2018 (Новинки зарубежного кино) ·%· Али, рули! / Stuber (2019) BDRip от Twister & ExKinoRay | iTunes Galfimbul 15227982461.42 GB 0 0 1570861209

09:20

12-Окт-19

Зарубежные фильмы 2016-2018 (Новинки зарубежного кино) ·%· Али, рули! / Stuber (2019) HDRip от Scarabey | iTunes Galfimbul 15056629761.4 GB 0 0 1570813220

20:00

11-Окт-19

Зарубежные фильмы 2016-2018 (Новинки зарубежного кино) ·%· Али, рули! / Stuber (2019) BDRip-AVC от OlLanDGroup | iTunes Galfimbul 18622184361.73 GB 0 0 1570669218

04:00

10-Окт-19

Зарубежные фильмы 2016-2018 (Новинки зарубежного кино) ·%· Али, рули! / Stuber (2019) BDRip 720p от селезень | iTunes Galfimbul 42431192373.95 GB 0 0 1570656018

00:20

10-Окт-19

Зарубежные фильмы 2016-2018 (Новинки зарубежного кино) ·%· Али, рули! / Stuber (2019) BDRip от MegaPeer | iTunes Galfimbul 15235249851.42 GB 0 0 1570641612

20:20

9-Окт-19

Зарубежные фильмы 2016-2018 (Новинки зарубежного кино) ·%· Али, рули! / Stuber (2019) BDRemux 1080p от селезень | iTunes Galfimbul 2473314585023.03 GB 0 0 1570633214

18:00

9-Окт-19

Зарубежные фильмы 2016-2018 (Новинки зарубежного кино) ·%· Али, рули! / Stuber (2019) UHD BDRip-HEVC 2160p | 4K | SDR | iTunes Galfimbul 2437732672122.7 GB 0 0 1570489212

02:00

8-Окт-19

Зарубежные фильмы 2016-2018 (Новинки зарубежного кино) ·%· Али, рули! / Stuber (2019) UHD BDRip-HEVC 2160p | 4K | HDR | iTunes Galfimbul 1231420410811.47 GB 2 0 1570471211

21:00

7-Окт-19

Зарубежные фильмы 2016-2018 (Новинки зарубежного кино) ·%· Али, рули! / Stuber (2019) BDRip 1080p от селезень | iTunes Galfimbul 90434029848.42 GB 0 0 1570431615

10:00

7-Окт-19

Зарубежные фильмы 2016-2018 (Новинки зарубежного кино) ·%· Али, рули! / Stuber (2019) UHD BDRip 1080p от селезень | iTunes Galfimbul 82498068267.68 GB 0 0 1570326015

04:40

6-Окт-19

Зарубежные фильмы 2016-2018 (Новинки зарубежного кино) ·%· Али, рули! / Stuber (2019) UHD BDRemux 2160p от селезень | 4K | HDR | iTunes Galfimbul 5007591183346.64 GB 0 0 1570288813

18:20

5-Окт-19

Зарубежные фильмы 2016-2018 (Новинки зарубежного кино) ·%· Али, рули! / Stuber (2019) BDRip 1080p от селезень | iTunes Galfimbul 88775710718.27 GB 0 0 1570284010

17:00

5-Окт-19

Зарубежные фильмы 2016-2018 (Новинки зарубежного кино) ·%· Али, рули! / Stuber (2019) BDRip 1080p | iTunes Galfimbul 73131163356.81 GB 0 0 1570270808

13:20

5-Окт-19

Зарубежные фильмы 2016-2018 (Новинки зарубежного кино) ·%· Али, рули! / Stuber (2019) WEB-DL 720p | iTunes Galfimbul 27989330712.61 GB 3 0 1570205408

19:10

4-Окт-19

Зарубежные фильмы 2016-2018 (Новинки зарубежного кино) ·%· Али, рули! / Stuber (2019) WEB-DL 1080p | D | iTunes Galfimbul 53769522065.01 GB 0 0 1570198840

17:20

4-Окт-19

Зарубежные фильмы 2016-2018 (Новинки зарубежного кино) ·%· Али, рули! / Stuber (2019) WEB-DL 1080p | iTunes Galfimbul 54659166085.09 GB 0 0 1570198832

17:20

4-Окт-19

Еще никто не оставлял запись к записи скачать торрент Али, рули! Stuber . Будь первым!

!Обратная связь