Скачать через торрент Красавица и чудовище Beauty and the Beast Фильм бесплатно в хорошем качестве torrent

Скачивайте на UnionPeer.org фильмы через торрент без регистрации. Новинки кино в хорошем качестве через торрент. На UnionPeer.org можно скачать через торрент фильмы 2014 и 2015 годов. Самые новые фильмы.

Скачать торрент Красавица и чудовище Beauty and the Beast бесплатно через .torrent фильм мультфильм сериал

Статистика раздачи
Размер:  5.26 GB   |    Зарегистрирован:  4 года 4 месяца   |    .torrent скачан:  38 раз   |   
Раздают:  1  
 

Скачать Красавица и чудовище / Beauty and the Beast (2017) WEBRip 1080p | D | Open Matte | Локализованная версия через torrent

 
 
Автор Сообщение

Galfimbul

avatar Galfimbul


Красавица и чудовище /Beauty and the Beast

Год выхода: 2017
Жанр: мюзикл, фэнтези, мелодрама, семейный
Режиссер: Билл Кондон / Bill Condon
В ролях: Эмма Уотсон, Дэн Стивенс, Люк Эванс, Джош Гад, Кевин Клайн, Хэтти Морахэн, Хейдн Гвин, Джерард Хоран, Рэй Фиарон, Юэн МакГрегор.

О фильме:
Обозлённая Волшебница превратила принца Адама в отвратительное чудовище за то, что тот был злым, самовлюблённым и грубым. Чтобы снять чары с себя и слуг своего замка, ему необходимо научиться быть добрым, любить и быть любимым. Произойти это должно до того, как с розы, подаренной Волшебницей, упадёт последний лепесток.



Страна: США
Студия: Mandeville Films, Walt Disney Pictures
Продолжительность: 02:09:45
Перевод: Профессиональный (дублированный) Лицензия

Файл
Качество: WEBRip 1080p | Open Matte
Формат: MKV
Видео: 1920x1080, 23.976 fps, MPEG-4 AVC, 5120 kbps avg
Аудио 1: Russian: 48 kHz, AC3, 6 ch, ~448 kbps avg
Аудио 2: English: 48 kHz, AC3, 6 ch, ~448 kbps avg
Субтитры: Русские (full), английские
General
Unique ID : 209738914874498621329583011478030297748 (0x9DCA3EE3F7AF18E299DBCF289B9CAA94)
Complete name : D:Beauty and the Beast (2017) Open Matte.mkv
Format : Matroska
Format version : Version 4
File size : 5.26 GiB
Duration : 2 h 9 min
Overall bit rate : 5 799 kb/s
Encoded date : UTC 2019-10-15 13:58:48
Writing application : mkvmerge v8.3.0 ('Over the Horizon') 32bit
Writing library : libebml v1.3.1 + libmatroska v1.4.2

Video
ID : 1
Format : AVC
Format/Info : Advanced Video Codec
Format profile : High@L4
Format settings : CABAC / 4 Ref Frames
Format settings, CABAC : Yes
Format settings, Reference : 4 frames
Codec ID : V_MPEG4/ISO/AVC
Duration : 2 h 9 min
Bit rate : 5 120 kb/s
Width : 1 920 pixels
Height : 1 080 pixels
Display aspect ratio : 16:9
Frame rate mode : Constant
Frame rate : 23.976 (24000/1001) FPS
Color space : YUV
Chroma subsampling : 4:2:0
Bit depth : 8 bits
Scan type : Progressive
Bits/(Pixel*Frame) : 0.103
Stream size : 4.45 GiB (85%)
Writing library : x264 core 142
Encoding settings : cabac=1 / ref=3 / deblock=1:0:0 / analyse=0x3:0x113 / me=hex / subme=7 / psy=1 / psy_rd=1.00:0.00 / mixed_ref=1 / me_range=16 / chroma_me=1 / trellis=1 / 8x8dct=1 / cqm=0 / deadzone=21,11 / fast_pskip=1 / chroma_qp_offset=-2 / threads=84 / lookahead_threads=8 / sliced_threads=0 / nr=0 / decimate=1 / interlaced=0 / bluray_compat=0 / constrained_intra=0 / bframes=6 / b_pyramid=2 / b_adapt=1 / b_bias=0 / direct=1 / weightb=1 / open_gop=0 / weightp=2 / keyint=50 / keyint_min=26 / scenecut=0 / intra_refresh=0 / rc_lookahead=40 / rc=2pass / mbtree=1 / bitrate=5120 / ratetol=1.0 / qcomp=0.60 / qpmin=0 / qpmax=69 / qpstep=4 / cplxblur=20.0 / qblur=0.5 / vbv_maxrate=7680 / vbv_bufsize=20480 / nal_hrd=none / filler=0 / ip_ratio=1.40 / aq=1:1.00
Language : Russian
Default : Yes
Forced : No

Audio #1
ID : 2
Format : AC-3
Format/Info : Audio Coding 3
Commercial name : Dolby Digital
Codec ID : A_AC3
Duration : 2 h 9 min
Bit rate mode : Constant
Bit rate : 448 kb/s
Channel(s) : 6 channels
Channel layout : L R C LFE Ls Rs
Sampling rate : 48.0 kHz
Frame rate : 31.250 FPS (1536 SPF)
Bit depth : 16 bits
Compression mode : Lossy
Stream size : 414 MiB (8%)
Language : Russian
Service kind : Complete Main
Default : Yes
Forced : No

Audio #2
ID : 3
Format : AC-3
Format/Info : Audio Coding 3
Commercial name : Dolby Digital
Codec ID : A_AC3
Duration : 2 h 9 min
Bit rate mode : Constant
Bit rate : 448 kb/s
Channel(s) : 6 channels
Channel layout : L R C LFE Ls Rs
Sampling rate : 48.0 kHz
Frame rate : 31.250 FPS (1536 SPF)
Bit depth : 16 bits
Compression mode : Lossy
Stream size : 414 MiB (8%)
Language : English
Service kind : Complete Main
Default : No
Forced : No

Text #1
ID : 4
Format : UTF-8
Codec ID : S_TEXT/UTF8
Codec ID/Info : UTF-8 Plain Text
Duration : 2 h 1 min
Bit rate : 77 b/s
Count of elements : 1596
Stream size : 69.4 KiB (0%)
Language : Russian
Default : No
Forced : No

Text #2
ID : 5
Format : UTF-8
Codec ID : S_TEXT/UTF8
Codec ID/Info : UTF-8 Plain Text
Duration : 2 h 8 min
Bit rate : 47 b/s
Count of elements : 1784
Stream size : 44.8 KiB (0%)
Language : English
Default : No
Forced : No
Источник http://BlaTor.org

Внимание! AdBlock блокирует показ скриншотов, все вопросы к разработчикам )))
Трекер:  [ 15-Окт-2019 20:10 ]

  

Скачать .torrent

Размер .torrent файла 13 KB


Размер: 5.26 GB
Хэш (hash) релиза: 39da57deb7b3a0100d5320137777ec155e28124e
Подписка на обновления:

Торренты, похожие на Красавица и чудовище Beauty and the Beast скачать торрент

Форум Название Автор Размер S L Добавлен
Мультфильмы до 2016 ·· Красавица и чудовище / Beauty And The Beast (Гэри Трусдэйл/Gary Trousdale, Керк Уайз/Kirk Wise) [1991 г., Детский/Семейный/Приключения/Мюзикл/Анимационный, DVD9] Перевод: А.Михалёв, Гланц и Королёва, дубляж Alex0181 79992033287.45 GB 0 0 1293315603

01:20

26-Дек-10

Зарубежные фильмы 2016-2019 (Новинки зарубежного кино) ·· Красавица и чудовище / Beauty and the Beast (2017) UHD BDRemux 2160p | 4K | HDR | D, A Galfimbul 6258619381258.29 GB 0 0 1582960809

10:20

29-Фев-20

Зарубежные фильмы 2016-2019 (Новинки зарубежного кино) ·· Красавица и чудовище / Beauty and the Beast (2017) UHD BDRemux 2160p от селезень | 4K | HDR | Лицензия Galfimbul 5352816495349.85 GB 0 0 1582924258

00:10

29-Фев-20

Зарубежные фильмы 2016-2019 (Новинки зарубежного кино) ·%· Красавица и чудовище / Beauty and the Beast (2017) BDRip-HEVC 1080p | Лицензия Galfimbul 87947636108.19 GB 0 0 1552795207

07:00

17-Мар-19

Зарубежные фильмы до 2016 ·%· Красавица и чудовище / Beauty and the Beast (Билл Кондон / Bill Condon) [2017, США, Мюзикл, фэнтези, мелодрама, семейный, DVD5 (сжатый)] исх. R5, Dub + Sub Rus + Original Eng Galfimbul 46933422084.37 GB 0 0 1531252913

23:01

10-Июл-18

Зарубежные фильмы до 2016 ·· Красавица и чудовище / Beauty and the Beast (Билл Кондон / Bill Condon) [2017, США, Мюзикл, фэнтези, мелодрама, семейный, DVD9] R5 Dub + Sub Rus + Original Eng Galfimbul 71863336966.69 GB 0 0 1524753040

17:30

26-Апр-18

Мультфильмы до 2016 ·· Красавица и чудовище / Beauty And The Beast (Гэри Трусдэйл / Gary Trousdale, Керк Уайз / Kirk Wise) [1991, детский, семейный, приключения, мюзикл, анимационный, DVD9] Дубляж, Гаврилов, Михалев Galfimbul 68908994566.42 GB 0 0 1507522011

07:06

9-Окт-17

Трейлеры и дополнительные материалы ·· Красавица и Чудовище / Beauty and the Beast (Билл Кондон) [2017, Мюзикл | Фэнтези | Мелодрама | Семейный, BDRip 720p] дополнительные материалы Galfimbul 25777464972.4 GB 0 0 1504510662

10:37

4-Сен-17

Зарубежные фильмы 2016-2019 (Новинки зарубежного кино) ·· Красавица и чудовище / Beauty and the Beast (Билл Кондон / Bill Condon) [2017, США, мюзикл, фэнтези, мелодрама, семейный, BDRip] AVO (Живов) Galfimbul 23504199682.19 GB 0 0 1503849726

19:02

27-Авг-17

Зарубежные фильмы до 2016 ·· Красавица и чудовище / Beauty and the Beast (Билл Кондон / Bill Condon) [2017, США, мюзикл, фэнтези, мелодрама, семейный, BDRip 1080p] Dub + Sub Rus, Eng + Original Eng Galfimbul 1207339687111.24 GB 0 0 1498570542

16:35

27-Июн-17

Зарубежные фильмы 2016-2019 (Новинки зарубежного кино) ·· Красавица и чудовище / Beauty and the Beast (Билл Кондон / Bill Condon) [2017, США, мюзикл, фэнтези, мелодрама, BDRip-AVC] Dub + Original (eng) + Sub (rus, eng) Galfimbul 31816690402.96 GB 0 0 1498410075

20:01

25-Июн-17

Зарубежные фильмы до 2016 ·· Красавица и чудовище / Beauty and the Beast (Билл Кондон / Bill Condon) [2017, США, мюзикл, фэнтези, мелодрама, семейный, Blu-ray disc 1080p] [EUR] Dub + Sub Rus, Eng + Original Eng Galfimbul 4496913584041.88 GB 0 0 1498405174

18:39

25-Июн-17

Зарубежные фильмы 2016-2019 (Новинки зарубежного кино) ·· Красавица и чудовище / Beauty and the Beast (Билл Кондон / Bill Condon) [2017, США, мюзикл, фэнтези, мелодрама, BDRip-AVC] Dub Galfimbul 16026179371.49 GB 0 0 1498401037

17:30

25-Июн-17

Зарубежные фильмы 2016-2019 (Новинки зарубежного кино) ·· Красавица и чудовище / Beauty and the Beast (Билл Кондон / Bill Condon) [2017, США, мюзикл, фэнтези, мелодрама, BDRip-AVC] Dub Galfimbul 782287988746 MB 0 0 1498401030

17:30

25-Июн-17

Зарубежные фильмы 2016-2019 (Новинки зарубежного кино) ·· Красавица и чудовище / Beauty and the Beast (Билл Кондон / Bill Condon) [2017, США, мюзикл, фэнтези, мелодрама, семейный, BDRip] Dub + Sub Rus, Eng + Original Eng Galfimbul 23489765242.19 GB 0 0 1497447028

16:30

14-Июн-17

Зарубежные фильмы 2016-2019 (Новинки зарубежного кино) ·· Красавица и чудовище / Beauty and the Beast (Билл Кондон) [2017 г., мюзикл, фэнтези, мелодрама, семейный, HDRip] iTunes Galfimbul 15533137921.45 GB 0 0 1497344430

12:00

13-Июн-17

Зарубежные фильмы 2016-2019 (Новинки зарубежного кино) ·· Красавица и чудовище / Beauty and the Beast (Билл Кондон) [2017 г., мюзикл, фэнтези, мелодрама, семейный, HDRip] iTunes Galfimbul 834490368796 MB 0 0 1497344422

12:00

13-Июн-17

Зарубежные фильмы 2016-2019 (Новинки зарубежного кино) ·· Красавица и чудовище / Beauty and the Beast (Билл Кондон) [2017, мюзикл, фэнтези, мелодрама, семейный, BDRip 1080p] [iTunes] Galfimbul 87515480988.15 GB 0 0 1497269488

15:11

12-Июн-17

Зарубежные сериалы ·· Красавица и чудовище / Beauty and the Beast / Сезон: 1 / Серии: 1-14 (?) (Гэри Фледер) [2012, США, драма, криминал, WEB-DLRip] DVO (NewStudio) Galfimbul 80741191687.52 GB 0 0 1496945735

21:15

8-Июн-17

Еще никто не оставлял запись к записи скачать торрент Красавица и чудовище Beauty and the Beast . Будь первым!

!Обратная связь