Скачать через торрент Пассажиры Passengers Фильм бесплатно в хорошем качестве torrent

Скачивайте на UnionPeer.org фильмы через торрент без регистрации. Новинки кино в хорошем качестве через торрент. На UnionPeer.org можно скачать через торрент фильмы 2014 и 2015 годов. Самые новые фильмы.

Скачать торрент Пассажиры Passengers бесплатно через .torrent фильм мультфильм сериал

Статистика раздачи
Размер:  4.67 GB   |    Зарегистрирован:  4 года 4 месяца   |    .torrent скачан:  35 раз   |   
Раздают:  1  
 

Скачать Пассажиры / Passengers (2016) BDRip-HEVC 1080p от HEVC-CLUB | Лицензия через torrent

 
 
Автор Сообщение

Galfimbul

avatar Galfimbul


Пассажиры / Passengers

Год выхода: 2016
Производство: США / Columbia Pictures
Жанр: фантастика, драма, мелодрама, приключения
Продолжительность: 01:56:16

Режиссер: Мортен Тильдум
В ролях: Дженнифер Лоуренс, Крис Пратт, Майкл Шин, Лоренс Фишбёрн, Энди Гарсиа, Винс Фостер, Кара Мишель Уайлдер, Конор Брофи, Джули Серда, Аврора Перрино

Описание: Космический корабль с 5 000 пассажирами на борту, погруженных на время полета в искусственный сон, держит курс на планету, которая станет для них новым домом. Всё идет по плану, но из-за сбоя системы двое пассажиров неожиданно просыпаются и понимают, что до конечного пункта путешествия 90 лет пути, и им суждено остаток жизни провести вдвоем в роскошных интерьерах корабля, оснащенного по последнему слову техники. Постепенно Джима и Аврору начинает непреодолимо тянуть друг к другу, но корабль попадает в беду, и теперь в их руках - жизнь и судьба всех обитателей корабля.

Качество: BDRip-HEVC 1080p
Видео: HEVC/H.265, 1920x804, ~4853 Kbps, 10 bit
Аудио 01: AC3, 6 ch, 448 Kbps | Русский, Дублированный
Аудио 02: AC3, 6 ch, 448 Kbps | Английский, Оригинал
Субтитры: Русские (форсированные, полные), английские (полные)



<span style="color:black;">
Формат : Matroska
Версия формата : Version 4
Размер файла : 4,67 Гбайт
Продолжительность : 1 ч. 56 м.
Общий поток : 5752 Кбит/сек
Название фильма : Пассажиры (2016) Encoded_by_M@kSIMus
Дата кодирования : UTC 2019-10-18 16:34:16
Программа кодирования : mkvmerge v38.0.0 ('The Silent Type') 64-bit
Библиотека кодирования : libebml v1.3.9 + libmatroska v1.5.2
Обложка : Yes
Attachments : cover.jpg

Видео
Идентификатор : 1
Формат : HEVC
Формат/Информация : High Efficiency Video Coding
Профиль формата : Main [email protected]@High
Идентификатор кодека : V_MPEGH/ISO/HEVC
Продолжительность : 1 ч. 56 м.
Битрейт : 4853 Кбит/сек
Ширина : 1920 пикселей
Высота : 804 пикселя
Соотношение сторон : 2,40:1
Режим частоты кадров : Постоянный
Частота кадров : 23,976 (24000/1001) кадра/сек
Цветовое пространство : YUV
Субдискретизация насыщенности : 4:2:0
Битовая глубина : 10 бит
Бит/(Пиксели*Кадры) : 0.131
Размер потока : 3,94 Гбайт (84%)
Библиотека кодирования : x265 3.1+11-de920e0a3183:[Windows][clang 8.0.1][64 bit] 10bit
Настройки программы : cpuid=1049583 / frame-threads=5 / numa-pools=4 / wpp / no-pmode / no-pme / no-psnr / no-ssim / log-level=3 / input-csp=1 / input-res=1920x804 / interlace=0 / total-frames=0 / level-idc=41 / high-tier=1 / uhd-bd=0 / ref=5 / allow-non-conformance / no-repeat-headers / annexb / no-aud / no-hrd / info / hash=0 / no-temporal-layers / open-gop / min-keyint=24 / keyint=240 / gop-lookahead=0 / bframes=9 / b-adapt=2 / b-pyramid / bframe-bias=0 / rc-lookahead=40 / lookahead-slices=5 / scenecut=40 / radl=0 / no-splice / no-intra-refresh / ctu=32 / min-cu-size=8 / no-rect / no-amp / max-tu-size=32 / tu-inter-depth=4 / tu-intra-depth=4 / limit-tu=1 / rdoq-level=1 / dynamic-rd=0.00 / no-ssim-rd / signhide / no-tskip / nr-intra=0 / nr-inter=0 / no-constrained-intra / no-strong-intra-smoothing / max-merge=5 / limit-refs=1 / no-limit-modes / me=3 / subme=7 / merange=57 / temporal-mvp / no-hme / weightp / no-weightb / no-analyze-src-pics / deblock=-3:-3 / no-sao / no-sao-non-deblock / rd=3 / early-skip / no-rskip / no-fast-intra / no-tskip-fast / no-cu-lossless / b-intra / no-splitrd-skip / rdpenalty=0 / psy-rd=2.00 / psy-rdoq=1.00 / no-rd-refine / no-lossless / cbqpoffs=0 / crqpoffs=0 / rc=crf / crf=20.0 / qcomp=0.60 / qpstep=4 / stats-write=0 / stats-read=0 / vbv-maxrate=50000 / vbv-bufsize=50000 / vbv-init=0.9 / crf-max=0.0 / crf-min=0.0 / ipratio=1.40 / pbratio=1.30 / aq-mode=3 / aq-strength=1.00 / no-cutree / zone-count=0 / no-strict-cbr / qg-size=32 / no-rc-grain / qpmax=69 / qpmin=0 / no-const-vbv / sar=1 / overscan=0 / videoformat=5 / range=0 / colorprim=2 / transfer=2 / colormatrix=2 / chromaloc=0 / display-window=0cll=0,0 / min-luma=0 / max-luma=1023 / log2-max-poc-lsb=8 / vui-timing-info / vui-hrd-info / slices=1 / no-opt-qp-pps / no-opt-ref-list-length-pps / no-multi-pass-opt-rps / scenecut-bias=0.05 / no-opt-cu-delta-qp / no-aq-motion / no-hdr / no-hdr-opt / no-dhdr10-opt / no-idr-recovery-sei / analysis-reuse-level=5 / scale-factor=0 / refine-intra=0 / refine-inter=0 / refine-mv=0 / refine-ctu-distortion=0 / no-limit-sao / ctu-info=0 / no-lowpass-dct / refine-analysis-type=0 / copy-pic=1 / max-ausize-factor=1.0 / no-dynamic-refine / no-single-sei / no-hevc-aq / no-svt / no-field / qp-adaptation-range=1.00
Язык : English
Default : Да
Forced : Нет
Цветовой диапазон : Limited

Аудио #1
Идентификатор : 2
Формат : AC-3
Формат/Информация : Audio Coding 3
Коммерческое название : Dolby Digital
Идентификатор кодека : A_AC3
Продолжительность : 1 ч. 56 м.
Вид битрейта : Постоянный
Битрейт : 448 Кбит/сек
Каналы : 6 каналов
ChannelLayout : L R C LFE Ls Rs
Частота : 48,0 КГц
Частота кадров : 31,250 кадров/сек (1536 SPF)
Битовая глубина : 16 бит
Метод сжатия : С потерями
Размер потока : 372 Мбайт (8%)
Заголовок : Дубляж
Язык : Russian
Default : Да
Forced : Нет

Аудио #2
Идентификатор : 3
Формат : AC-3
Формат/Информация : Audio Coding 3
Коммерческое название : Dolby Digital
Идентификатор кодека : A_AC3
Продолжительность : 1 ч. 56 м.
Вид битрейта : Постоянный
Битрейт : 448 Кбит/сек
Каналы : 6 каналов
ChannelLayout : L R C LFE Ls Rs
Частота : 48,0 КГц
Частота кадров : 31,250 кадров/сек (1536 SPF)
Битовая глубина : 16 бит
Метод сжатия : С потерями
Размер потока : 372 Мбайт (8%)
Заголовок : Оригинал
Язык : English
Default : Нет
Forced : Нет

Текст #1
Идентификатор : 4
Формат : UTF-8
Идентификатор кодека : S_TEXT/UTF8
Идентификатор кодека/Информация : UTF-8 Plain Text
Продолжительность : 1 ч. 54 м.
Битрейт : 1 бит/сек
ElementCount : 27
Размер потока : 1,19 Кбайт (0%)
Заголовок : Rus Forced
Язык : Russian
Default : Да
Forced : Да

Текст #2
Идентификатор : 5
Формат : UTF-8
Идентификатор кодека : S_TEXT/UTF8
Идентификатор кодека/Информация : UTF-8 Plain Text
Продолжительность : 1 ч. 54 м.
Битрейт : 68 бит/сек
ElementCount : 1107
Размер потока : 57,6 Кбайт (0%)
Заголовок : Rus Full
Язык : Russian
Default : Нет
Forced : Нет

Текст #3
Идентификатор : 6
Формат : UTF-8
Идентификатор кодека : S_TEXT/UTF8
Идентификатор кодека/Информация : UTF-8 Plain Text
Продолжительность : 1 ч. 45 м.
Битрейт : 49 бит/сек
ElementCount : 1280
Размер потока : 38,1 Кбайт (0%)
Заголовок : Eng Full
Язык : English
Default : Нет
Forced : Нет

Меню
00:00:00.000 : :Chapter 1
00:07:04.674 : :Chapter 2
00:14:38.210 : :Chapter 3
00:20:33.649 : :Chapter 4
00:25:06.338 : :Chapter 5
00:30:30.662 : :Chapter 6
00:40:47.987 : :Chapter 7
00:50:23.020 : :Chapter 8
00:57:28.945 : :Chapter 9
01:02:54.812 : :Chapter 10
01:10:47.158 : :Chapter 11
01:17:48.664 : :Chapter 12
01:25:17.028 : :Chapter 13
01:31:45.041 : :Chapter 14
01:37:53.242 : :Chapter 15
01:42:18.549 : :Chapter 16

Источник http://BlaTor.org

Внимание! AdBlock блокирует показ скриншотов, все вопросы к разработчикам )))
Трекер:  [ 18-Окт-2019 20:00 ]

  

Скачать .torrent

Размер .torrent файла 12 KB


Размер: 4.67 GB
Хэш (hash) релиза: 337e349dcca6e12226fe75015d5af5cb09eac9ee
Подписка на обновления:

Торренты, похожие на Пассажиры Passengers скачать торрент

Форум Название Автор Размер S L Добавлен
Зарубежные фильмы 2016-2019 (Новинки зарубежного кино) ·%· Пассажиры / Passengers (2016) BDRip-HEVC 1080p от HEVC-CLUB | D Galfimbul 52769281524.91 GB 0 0 1573408232

20:50

10-Ноя-19

Зарубежные фильмы 2016-2019 (Новинки зарубежного кино) ·%· Пассажиры / Passengers (2016) BDRip 1080p от New-Team & qqss44 | Лицензия Galfimbul 74589145966.95 GB 0 0 1571422820

21:20

18-Окт-19

Зарубежные фильмы 2016-2019 (Новинки зарубежного кино) ·%· Пассажиры / Passengers (2016) BDRip 720p от MediaClub | D, A Galfimbul 63990868495.96 GB 0 0 1555594812

16:40

18-Апр-19

Зарубежные фильмы 2016-2019 (Новинки зарубежного кино) ·%· Пассажиры / Passengers (2016) BDRip-AVC | D | Локализованная версия | Лицензия Galfimbul 22133809162.06 GB 0 0 1541404211

10:50

5-Ноя-18

Зарубежные фильмы 2016-2019 (Новинки зарубежного кино) ·%· Пассажиры / Passengers (2016) BDRip от ExKinoRay | Локализованная версия | Лицензия Galfimbul 15678171661.46 GB 0 0 1538777460

01:11

6-Окт-18

Зарубежные фильмы 2016-2019 (Новинки зарубежного кино) ·%· Пассажиры / Passengers (2016) BDRip от ExKinoRay | Локализованная версия | Лицензия Galfimbul 23427807222.18 GB 0 0 1538777412

01:10

6-Окт-18

Зарубежные фильмы 2016-2019 (Новинки зарубежного кино) ·· Пассажиры / Passengers (Мортен Тильдум / Morten Tyldum) [2016, США, фантастика, триллер, драма, HDRip] AVO (Смирнов) Galfimbul 15676149761.46 GB 0 0 1523732468

22:01

14-Апр-18

Зарубежные фильмы 2016-2019 (Новинки зарубежного кино) ·· Пассажиры / Passengers (Morten Tyldum Мортен Тильдум) [2016, фантастика, драма, мелодрама, BDRip 1080p] D, A | Лицензия Galfimbul 1893756038117.64 GB 0 0 1518356482

16:41

11-Фев-18

Зарубежные фильмы 2016-2019 (Новинки зарубежного кино) ·· Пассажиры / Passengers (Morten Tyldum Мортен Тильдум) [2016, фантастика, драма, мелодрама, DVD9] Лицензия Galfimbul 77627207687.23 GB 0 0 1518294032

23:20

10-Фев-18

Зарубежные фильмы 2016-2019 (Новинки зарубежного кино) ·· Пассажиры / Passengers (Morten Tyldum Мортен Тильдум) [2016, фантастика, драма, мелодрама, BDRip 2160p] Galfimbul 3783620020235.24 GB 0 0 1505195426

08:50

12-Сен-17

Зарубежные фильмы 2016-2019 (Новинки зарубежного кино) ·· Пассажиры / Passengers (Мортен Тильдум / Morten Tyldum) [2016, США, фантастика, драма, мелодрама, приключения, BDRip] AVO (Юрий Сербин) Galfimbul 15562301441.45 GB 0 0 1501295419

05:30

29-Июл-17

Зарубежные фильмы до 2016 ·· Пассажиры / Passengers (Мортен Тильдум / Morten Tyldum) [2016, США, Фантастика, драма, мелодрама, приключения, DVD5 (сжатый)] исх. R2, Dub + Sub Rus + Original Eng Galfimbul 46975754244.37 GB 0 0 1500575771

21:36

20-Июл-17

Трейлеры и дополнительные материалы ·· Пассажиры / Passengers (Morten Tyldum Мортен Тильдум) [2016, фантастика, драма, мелодрама, BDRip] дополнительные материалы Galfimbul 59030092995.5 GB 0 0 1497989366

23:09

20-Июн-17

Трейлеры и дополнительные материалы ·· Пассажиры / Passengers (Мортен Тильдум) [2016, фантастика, драма, мелодрама, BluRay] удаленные сцены Galfimbul 13049096871.22 GB 0 0 1494656164

09:16

13-Май-17

Зарубежные фильмы до 2016 ·· Пассажиры / Passengers (Мортен Тильдум / Morten Tyldum) [2016, США, фантастика, драма, мелодрама, приключения, BD> DVD9 (Custom)] DUB + AVO + Sub Rus / Eng + Original Eng Galfimbul 83417047047.77 GB 0 0 1491411248

19:54

5-Апр-17

Зарубежные фильмы до 2016 ·· Пассажиры / Passengers (Мортен Тильдум / Morten Tyldum) [2016, США, фантастика, драма, мелодрама, Blu-ray disc 1080p] [EUR] Dub + Sub Rus, Eng + Original Eng Galfimbul 4172635861038.86 GB 0 0 1490201929

19:58

22-Мар-17

Зарубежные фильмы до 2016 ·· Пассажиры / Passengers (Мортен Тильдум / Morten Tyldum) [2016, США, фантастика, драма, мелодрама, приключения, BDRip 1080p] Dub (iTunes) + Sub Rus, Ukr, Eng + Original Eng Galfimbul 1417498295113.2 GB 0 0 1489100065

01:54

10-Мар-17

Зарубежные фильмы до 2016 ·· Пассажиры / Passengers (Мортен Тильдум / Morten Tyldum) [2016, США, фантастика, драма, мелодрама, приключения, BDRip 720p] Dub (iTunes) + Sub Rus, Ukr, Eng + Original Eng Galfimbul 57552608405.36 GB 0 0 1489100039

01:53

10-Мар-17

Зарубежные фильмы 2016-2019 (Новинки зарубежного кино) ·· Пассажиры / Passengers (Мортен Тильдум / Morten Tyldum) [2016, США, фантастика, драма, мелодрама, приключения, BDRip-AVC] Dub Rus, Ukr (iTunes) + Sub Rus, Ukr, Eng + Original Eng Galfimbul 31982282512.98 GB 0 0 1488637058

17:17

4-Мар-17

Еще никто не оставлял запись к записи скачать торрент Пассажиры Passengers . Будь первым!

!Обратная связь